Потерянный рай / Escobar: Paradise Lost (Андреа Ди Стефано / Andrea Di Stefano) [2014, Франция, Испания, Бельгия, Панама, криминал, триллер, драма, BDRip 720p] DVO (Sunny-Films) + Sub Eng + Original Eng

Ответить на тему
 
Автор Сообщение

user ®

Стаж: 7 лет 7 месяцев

Сообщений: 20008

Пост Пост: #1 от 02-Апр-2015 01:45

[Цитировать]

Потерянный рай / Escobar: Paradise Lost
Страна: Франция, Испания, Бельгия, Панама
Студия: Roxbury Pictures
Жанр: Криминал, триллер, драма
Год выпуска: 2014
Продолжительность: 01:59:31
Перевод: Любительский (двухголосый закадровый) Sunny-Films
Cубтитры: английские
Оригинальная аудиодорожка: английский
Режиссер: Андреа Ди Стефано / Andrea Di Stefano
В ролях: Бенисио Дель Торо, Джош Хатчерсон, Клаудия Траисак, Брэйди Корбет, Карлос Бардем, Ана Жирардо, Мике Морено, Лаура Лондоньо, Лорен Зимски, Россана Урибе
Описание: Молодой серфер Ник приезжает к своему брату в Колумбию, где по уши влюбляется в местную девушку по имени Мария и купается в счастье ровно до тех пор, пока Мария не знакомит его со своим дядей — знаменитым наркобароном Пабло Эскобаром.

Тип релиза: BDRip 720p
Контейнер: MKV
Видео: MPEG-4 AVC, 8623 Кбит/с, 1280x544, 24,000 fps
Аудио: Rus, AC3, 448 kb/s (6 ch), 48 kHz
Аудио 2: Eng, DTS, 1510 kb/s (6 ch), 48 kHz
Формат субтитров: softsub (SRT)
MediaInfo
x264 [info]: frame I:1107 Avg QP:14.60 size:118729
x264 [info]: frame P:36967 Avg QP:16.17 size: 69750
x264 [info]: frame B:133894 Avg QP:17.46 size: 38915
Format : Matroska
Format version : Version 4 / Version 2
File size : 9.01 GiB
Duration : 1h 59mn
Overall bit rate : 10.8 Mbps
Movie name : Потерянный рай. (Tonik)
Encoded date : UTC 2015-03-31 17:07:06
Writing application : mkvmerge v7.1.0 ('Good Love') 64bit built on Jul 27 2014 13:06:55
Writing library : libebml v1.3.0 + libmatroska v1.4.1
DURATION : 01:51:25.041000000
NUMBER_OF_FRAMES : 1050
NUMBER_OF_BYTES : 31077
_STATISTICS_WRITING_APP : mkvmerge v7.1.0 ('Good Love') 64bit built on Jul 27 2014 13:06:55
_STATISTICS_WRITING_DATE_UTC : 2015-03-31 17:07:06
_STATISTICS_TAGS : BPS DURATION NUMBER_OF_FRAMES NUMBER_OF_BYTES
Video
ID : 1
Format : AVC
Format/Info : Advanced Video Codec
Format profile : High@L4.1
Format settings, CABAC : Yes
Format settings, ReFrames : 12 frames
Codec ID : V_MPEG4/ISO/AVC
Duration : 1h 59mn
Bit rate : 8 623 Kbps
Width : 1 280 pixels
Height : 544 pixels
Display aspect ratio : 2.35:1
Frame rate mode : Constant
Frame rate : 24.000 fps
Color space : YUV
Chroma subsampling : 4:2:0
Bit depth : 8 bits
Scan type : Progressive
Bits/(Pixel*Frame) : 0.516
Stream size : 7.20 GiB (80%)
Writing library : x264 core 146 r2538kMod 121396c
Encoding settings : cabac=1 / ref=12 / deblock=1:-3:-3 / analyse=0x3:0x133 / me=umh / subme=10 / psy=1 / fade_compensate=0.00 / psy_rd=1.08:0.00 / mixed_ref=1 / me_range=24 / chroma_me=1 / trellis=2 / 8x8dct=1 / cqm=0 / deadzone=21,11 / fast_pskip=1 / chroma_qp_offset=-2 / threads=24 / lookahead_threads=4 / sliced_threads=0 / nr=0 / decimate=1 / interlaced=0 / bluray_compat=0 / constrained_intra=0 / fgo=0 / bframes=11 / b_pyramid=2 / b_adapt=2 / b_bias=0 / direct=3 / weightb=1 / open_gop=0 / weightp=2 / keyint=250 / keyint_min=24 / scenecut=40 / intra_refresh=0 / rc=crf / mbtree=0 / crf=16.5000 / qcomp=0.65 / qpmin=0 / qpmax=69 / qpstep=4 / ip_ratio=1.30 / pb_ratio=1.20 / aq=3:0.68
Language : English
Default : Yes
Forced : No
Matrix coefficients : BT.709
_STATISTICS_WRITING_APP : mkvmerge v7.1.0 ('Good Love') 64bit built on Jul 27 2014 13:06:55
_STATISTICS_WRITING_DATE_UTC : 2015-03-31 17:07:06
_STATISTICS_TAGS : BPS DURATION NUMBER_OF_FRAMES NUMBER_OF_BYTES
DURATION : 01:59:25.334000000
NUMBER_OF_FRAMES : 171968
NUMBER_OF_BYTES : 7920312098
Audio #1
ID : 2
Format : AC-3
Format/Info : Audio Coding 3
Mode extension : CM (complete main)
Format settings, Endianness : Big
Codec ID : A_AC3
Duration : 1h 59mn
Bit rate mode : Constant
Bit rate : 448 Kbps
Channel(s) : 6 channels
Channel positions : Front: L C R, Side: L R, LFE
Sampling rate : 48.0 KHz
Bit depth : 16 bits
Compression mode : Lossy
Stream size : 383 MiB (4%)
Title : Sunny-Films
Language : Russian
Default : Yes
Forced : No
Audio #2
ID : 3
Format : DTS
Format/Info : Digital Theater Systems
Mode : 16
Format settings, Endianness : Big
Codec ID : A_DTS
Duration : 1h 59mn
Bit rate mode : Constant
Bit rate : 1 509 Kbps
Channel(s) : 6 channels
Channel positions : Front: L C R, Side: L R, LFE
Sampling rate : 48.0 KHz
Bit depth : 16 bits
Compression mode : Lossy
Stream size : 1.26 GiB (14%)
Language : English
Default : No
Forced : No
Text
ID : 4
Format : UTF-8
Codec ID : S_TEXT/UTF8
Codec ID/Info : UTF-8 Plain Text
Language : English
Default : No
Forced : No
Menu
00:00:00.000 : en:00:00:00.000
00:08:02.250 : en:00:08:02.250
00:13:13.208 : en:00:13:13.208
00:23:27.333 : en:00:23:27.333
00:29:49.500 : en:00:29:49.500
00:39:17.708 : en:00:39:17.708
00:44:35.250 : en:00:44:35.250
00:51:42.458 : en:00:51:42.458
01:00:10.542 : en:01:00:10.542
01:06:53.083 : en:01:06:53.083
01:15:35.583 : en:01:15:35.583
01:21:23.542 : en:01:21:23.542
01:30:26.250 : en:01:30:26.250
01:36:30.000 : en:01:36:30.000
01:44:00.708 : en:01:44:00.708
01:51:59.667 : en:01:51:59.667
Скриншоты
Скачать

Скачать торрент!

Как скачивать? · Что такое торрент? · Рейтинг и ограничения

Сайт не распространяет и не хранит электронные версии произведений, а лишь предоставляет доступ к создаваемому пользователями каталогу ссылок на торрент-файлы, которые содержат только списки хеш-сумм

[Профиль] [ЛС]
Показать сообщения:    
Ответить на тему

Текущее время: Сегодня 04:14

Часовой пояс: GMT + 4



Вы не можете начинать темы
Вы не можете отвечать на сообщения
Вы не можете редактировать свои сообщения
Вы не можете удалять свои сообщения
Вы не можете голосовать в опросах
Вы не можете прикреплять файлы к сообщениям
Вы не можете скачивать файлы