Кадры / The Internship (Шон Леви / Shawn Levy) [2013, США, комедия, BDRip 1080p] [UNRATED] Dub + Ukr + Original Eng + Sub (Rus, Ukr, Eng)

Ответить на тему
 
Автор Сообщение

user ®

Стаж: 7 лет 7 месяцев

Сообщений: 20008

Пост Пост: #1 от 31-Мар-2015 23:54

[Цитировать]

Кадры / The Internship [UNRATED]- Год выпуска: 2013
Страна: США
Жанр: комедия
Продолжительность: 02:05:01
Перевод: Профессиональный (полное дублирование) Blu-ray CEE
Оригинальная звуковая дорожка: English
Субтитры: Russian (Forced, Blu-ray EUR), Russian (Blu-ray EUR), Ukrainian (Blu-ray EUR), English, English (SDH), English (SDH-COLORED)-Режиссер: Шон Леви / Shawn Levy
В ролях: Винс Вон, Оуэн Уилсон, Роуз Бирн, Макс Мингелла, Аасиф Мандви, Джош Бренер, Дилан О’Брайэн, Тия Сиркар, Тобит Рафаэль, Джош Гад
О фильме: Билли и Ник всю жизнь занимаются продажами. Но новый компьютерный мир рушит их карьеру. Стараясь доказать, что они не отстали от жизни, они бросают вызов судьбе, получив желанную стажировку в компании Google вместе с командой лучших студентов колледжей. Но получить доступ в этот фантастический мир - это только половина дела. Сейчас им придется выдержать конкуренцию с самыми лучшими техническими гениями, чтобы доказать, что необходимость - это мать обновления.-NTb!
Релиз:
Формат: MKV
Источник: The.Internship.2013.UNRATED.COMPLETE.BLURAY-LAZERS
Видео: 1920x818 at 23.976 fps, x264 r2358kMod, CRF 17, ~9877 kbps avg
Аудио #01: Russian: 48 kHz, DTS, 3/2 (L,C,R,l,r) + LFE ch, ~768.00 kbps avg |Дубляж, Blu-ray EUR|
Аудио #02: Ukrainian: 48 kHz, DTS, 3/2 (L,C,R,l,r) + LFE ch, ~768.00 kbps avg |Дубляж, Blu-ray EUR|
Аудио #03: English: 48 kHz/16-bit, DTS 5.1, ~1536.00 kbps avg
Аудио #04: English: 48 kHz, AC3, 2/0 (L,R) ch, ~224.00 kbps avg |Commentary with Shawn Levy|
Семпл-Source vs Encode
-
mInfo
Формат : Matroska
Версия формата : Version 4 / Version 2
Размер файла : 11,5 Гбайт
Продолжительность : 2 ч. 5 м.
Общий поток : 13,2 Мбит/сек
Название фильма : The Internship (2013) - Release for HDCLUB
Дата кодирования : UTC 2015-03-29 04:54:35
Программа кодирования : mkvmerge v7.0.0 ('Where We Going') 32bit built on Jun 9 2014 15:08:34
Библиотека кодирования : libebml v1.3.0 + libmatroska v1.4.1
DURATION : 02:02:21.334000000
NUMBER_OF_FRAMES : 2529
NUMBER_OF_BYTES : 100330
_STATISTICS_WRITING_APP : mkvmerge v7.0.0 ('Where We Going') 32bit built on Jun 9 2014 15:08:34
_STATISTICS_WRITING_DATE_UTC : 2015-03-29 04:54:35
_STATISTICS_TAGS : BPS DURATION NUMBER_OF_FRAMES NUMBER_OF_BYTES
Видео
Идентификатор : 1
Формат : AVC
Формат/Информация : Advanced Video Codec
Профиль формата : High@L4.0
Параметр CABAC формата : Да
Параметр ReFrames формата : 5 кадров
Идентификатор кодека : V_MPEG4/ISO/AVC
Продолжительность : 2 ч. 5 м.
Битрейт : 9621 Кбит/сек
Ширина : 1920 пикселей
Высота : 818 пикселей
Соотношение сторон : 2,35:1
Режим частоты кадров : Постоянный
Частота кадров : 23,976 кадра/сек
Цветовое пространство : YUV
Субдискретизация насыщенности : 4:2:0
Битовая глубина : 8 бит
Тип развёртки : Прогрессивная
Бит/(Пиксели*Кадры) : 0.255
Размер потока : 8,40 Гбайт (73%)
Заголовок : The Internship (2013) - Release for HDCLUB
Библиотека кодирования : x264 core 138 r2358kMod 9e941d1
Настройки программы : cabac=1 / ref=5 / deblock=1:-3:-3 / analyse=0x3:0x133 / me=umh / subme=10 / psy=1 / fade_compensate=0.00 / psy_rd=1.05:0.00 / mixed_ref=1 / me_range=48 / chroma_me=1 / trellis=2 / 8x8dct=1 / cqm=0 / deadzone=21,11 / fast_pskip=0 / chroma_qp_offset=-2 / threads=12 / lookahead_threads=2 / sliced_threads=0 / nr=0 / decimate=1 / interlaced=0 / bluray_compat=0 / constrained_intra=0 / bframes=7 / b_pyramid=2 / b_adapt=2 / b_bias=0 / direct=3 / weightb=1 / open_gop=0 / weightp=2 / keyint=250 / keyint_min=23 / scenecut=40 / intra_refresh=0 / rc=crf / mbtree=0 / crf=17.0000 / qcomp=0.60 / qpmin=0 / qpmax=69 / qpstep=4 / ip_ratio=1.30 / pb_ratio=1.20 / aq=1:0.85
Язык : English
Default : Да
Forced : Нет
DURATION : 02:05:01.411000000
NUMBER_OF_FRAMES : 179854
NUMBER_OF_BYTES : 9261413626
_STATISTICS_WRITING_APP : mkvmerge v7.0.0 ('Where We Going') 32bit built on Jun 9 2014 15:08:34
_STATISTICS_WRITING_DATE_UTC : 2015-03-29 04:54:35
_STATISTICS_TAGS : BPS DURATION NUMBER_OF_FRAMES NUMBER_OF_BYTES
Аудио #1
Идентификатор : 2
Формат : DTS
Формат/Информация : Digital Theater Systems
Режим : 16
Параметр Endianness формата : Big
Идентификатор кодека : A_DTS
Продолжительность : 2 ч. 5 м.
Вид битрейта : Постоянный
Битрейт : 768 Кбит/сек
Каналы : 6 каналов
Расположение каналов : Front: L C R, Side: L R, LFE
Частота : 48,0 КГц
Битовая глубина : 24 бит
Метод сжатия : С потерями
Размер потока : 687 Мбайт (6%)
Заголовок : DTS 5.1 @ 768 kbps - DUB, Blu-ray EUR
Язык : Russian
Default : Да
Forced : Нет
Аудио #2
Идентификатор : 3
Формат : DTS
Формат/Информация : Digital Theater Systems
Режим : 16
Параметр Endianness формата : Big
Идентификатор кодека : A_DTS
Продолжительность : 2 ч. 5 м.
Вид битрейта : Постоянный
Битрейт : 768 Кбит/сек
Каналы : 6 каналов
Расположение каналов : Front: L C R, Side: L R, LFE
Частота : 48,0 КГц
Битовая глубина : 24 бит
Метод сжатия : С потерями
Размер потока : 687 Мбайт (6%)
Заголовок : DTS 5.1 @ 768 kbps - DUB, Blu-ray EUR
Язык : Ukrainian
Default : Нет
Forced : Нет
Аудио #3
Идентификатор : 4
Формат : DTS
Формат/Информация : Digital Theater Systems
Режим : 16
Параметр Endianness формата : Big
Идентификатор кодека : A_DTS
Продолжительность : 2 ч. 5 м.
Вид битрейта : Постоянный
Битрейт : 1509 Кбит/сек
Каналы : 6 каналов
Расположение каналов : Front: L C R, Side: L R, LFE
Частота : 48,0 КГц
Битовая глубина : 24 бит
Метод сжатия : С потерями
Размер потока : 1,32 Гбайт (11%)
Заголовок : DTS 5.1 @ 1536 kbps
Язык : English
Default : Нет
Forced : Нет
Аудио #4
Идентификатор : 5
Формат : AC-3
Формат/Информация : Audio Coding 3
Расширение режима : CM (complete main)
Параметр Endianness формата : Big
Идентификатор кодека : A_AC3
Продолжительность : 2 ч. 5 м.
Вид битрейта : Постоянный
Битрейт : 224 Кбит/сек
Каналы : 2 канала
Расположение каналов : Front: L R
Частота : 48,0 КГц
Битовая глубина : 16 бит
Метод сжатия : С потерями
Размер потока : 200 Мбайт (2%)
Заголовок : AC3 2.0 @ 224 kbps - Director's Commentary
Язык : English
Default : Нет
Forced : Нет
Текст #1
Идентификатор : 6
Формат : UTF-8
Идентификатор кодека : S_TEXT/UTF8
Идентификатор кодека/Информация : UTF-8 Plain Text
Заголовок : Forced
Язык : Russian
Default : Да
Forced : Нет
Текст #2
Идентификатор : 7
Формат : UTF-8
Идентификатор кодека : S_TEXT/UTF8
Идентификатор кодека/Информация : UTF-8 Plain Text
Язык : Russian
Default : Нет
Forced : Нет
Текст #3
Идентификатор : 8
Формат : UTF-8
Идентификатор кодека : S_TEXT/UTF8
Идентификатор кодека/Информация : UTF-8 Plain Text
Язык : Ukrainian
Default : Нет
Forced : Нет
Текст #4
Идентификатор : 9
Формат : UTF-8
Идентификатор кодека : S_TEXT/UTF8
Идентификатор кодека/Информация : UTF-8 Plain Text
Язык : English
Default : Нет
Forced : Нет
Текст #5
Идентификатор : 10
Формат : UTF-8
Идентификатор кодека : S_TEXT/UTF8
Идентификатор кодека/Информация : UTF-8 Plain Text
Заголовок : SDH
Язык : English
Default : Нет
Forced : Нет
Текст #6
Идентификатор : 11
Формат : UTF-8
Идентификатор кодека : S_TEXT/UTF8
Идентификатор кодека/Информация : UTF-8 Plain Text
Заголовок : SDH-COLORED
Язык : English
Default : Нет
Forced : Нет
Меню
00:00:00.000 : en:00:00:00.000
00:05:28.036 : en:00:05:28.036
00:07:50.428 : en:00:07:50.428
00:14:21.569 : en:00:14:21.569
00:19:40.387 : en:00:19:40.387
00:25:58.932 : en:00:25:58.932
00:28:59.780 : en:00:28:59.780
00:32:37.372 : en:00:32:37.372
00:35:04.769 : en:00:35:04.769
00:36:19.344 : en:00:36:19.344
00:41:52.009 : en:00:41:52.009
00:44:34.922 : en:00:44:34.922
00:48:04.840 : en:00:48:04.840
00:50:37.576 : en:00:50:37.576
00:58:27.754 : en:00:58:27.754
01:02:17.776 : en:01:02:17.776
01:06:08.798 : en:01:06:08.798
01:11:12.852 : en:01:11:12.852
01:14:02.646 : en:01:14:02.646
01:15:46.917 : en:01:15:46.917
01:18:54.438 : en:01:18:54.438
01:21:27.299 : en:01:21:27.299
01:24:11.630 : en:01:24:11.630
01:26:07.078 : en:01:26:07.078
01:27:57.731 : en:01:27:57.731
01:29:37.497 : en:01:29:37.497
01:31:39.911 : en:01:31:39.911
01:37:15.788 : en:01:37:15.788
01:42:32.938 : en:01:42:32.938
01:48:12.819 : en:01:48:12.819
01:54:18.810 : en:01:54:18.810
01:57:37.634 : en:01:57:37.634

-
Цитата:
* Сохранены оригинальные главы как на Blu-ray.
* Fix OCR, italics, overlapping, etc... @ Dorothea.
Скачать

Скачать торрент!

Как скачивать? · Что такое торрент? · Рейтинг и ограничения

Сайт не распространяет и не хранит электронные версии произведений, а лишь предоставляет доступ к создаваемому пользователями каталогу ссылок на торрент-файлы, которые содержат только списки хеш-сумм

[Профиль] [ЛС]
Показать сообщения:    
Ответить на тему

Текущее время: Сегодня 01:46

Часовой пояс: GMT + 4



Вы не можете начинать темы
Вы не можете отвечать на сообщения
Вы не можете редактировать свои сообщения
Вы не можете удалять свои сообщения
Вы не можете голосовать в опросах
Вы не можете прикреплять файлы к сообщениям
Вы не можете скачивать файлы