Ярость / Fury (Дэвид Эйр / David Ayer) [2014, Великобритания, США, Китай, боевик, драма, военный, BDRip 720p] Dub + VO (Матвеев) + Sub Rus, Eng + Original Eng

Ответить на тему
 
Автор Сообщение

user ®

Стаж: 7 лет 7 месяцев

Сообщений: 20008

Пост Пост: #1 от 31-Мар-2015 23:54

[Цитировать]

Ярость / Fury Страна: Великобритания, США, Китай
Студия: Columbia Pictures, Crave Films, Huayi Brothers Media
Жанр: боевик, драма, военный
Год выпуска: 2014
Продолжительность: 02:14:38
Перевод 1: Профессиональный (дублированный) Blu-ray EUR
Перевод 2: Одноголосый (закадровый) Матвеев
Cубтитры: русские (forced, BD, Матвеев-цензура, без цензуры), украинские (forced), английские (forced, full, SDH, SDH COLORED)
Оригинальная аудиодорожка: английский
Режиссер: Дэвид Эйр / David Ayer
В ролях: Брэд Питт, Логан Лерман, Шайа ЛаБаф, Майкл Пенья, Джон Бернтал, Джейсон Айзекс, Джим Пэррак, Брэд Уильям Хенке, Кевин Вэнс, Завьер Сэмюэл, Анамария Маринка, Скотт Иствуд
Описание: Стоит апрель 1945 года, и победа над немцами уже близка: союзники уверенно продвигаются вглубь вражеской территории, и оказываемое им сопротивление становится слабее день ото дня. Это, однако, совсем не значит, что на пути к победе союзные войска не потеряют еще множество людей, и многие солдаты сознают, что смерть ждет на расстоянии вытянутой руки. Среди закаленных в бою пессимистов, каждый день ведущих ожесточенные бои во имя победы, экипаж танка, на чьем дуле намалевано слово «Ярость».


Тип релиза: BDRip 720p [RightSiZE]
Контейнер: MKV
Видео: AVC, 1280x536, 7810Kbps, 23.976 fps
Аудио 1: Russian: 48 kHz, AC3, 3/2 (L,C,R,l,r) + LFE ch, ~640.00 kbps avg |Blu-ray EUR|
Аудио 2: Ukrainian: 48 kHz, AC3, 3/2 (L,C,R,l,r) + LFE ch, ~640.00 kbps avg |Blu-ray EUR|
Аудио 3: Russian: 48 kHz, AC3, 3/2 (L,C,R,l,r) + LFE ch, ~640.00 kbps avg |Матвеев|
Аудио 4: English: 48 kHz, AC3, 3/2 (L,C,R,l,r) + LFE ch, ~640.00 kbps |Original|
Чаптеры: есть

Доп.информация
Перевод Doctor_Joker доступен благодаря будулайроманов, dikii. Работа со звуком - Переводман. В переводе большое количество ненормативной лексики.
MediaInfo
General
Unique ID : 205432914101836446260026669084561619618 (0x9A8CF0A949FE96B991DE4BA5C817BAA2)
Complete name : D:\Fury.2014.720p.BluRay.DD5.1 x264-Talian-.mkv
Format : Matroska
Format version : Version 2
File size : 9.75 GiB
Duration : 2h 14mn
Overall bit rate : 10.4 Mbps
Movie name : Fury-Talian-
Encoded date : UTC 2015-03-30 16:10:01
Writing application : mkvmerge v5.7.0 ('The Whirlwind') built on Jul 8 2012 20:08:51
Writing library : libebml v1.2.3 + libmatroska v1.3.0
Video
ID : 1
Format : AVC
Format/Info : Advanced Video Codec
Format profile : High@L4.1
Format settings, CABAC : Yes
Format settings, ReFrames : 12 frames
Codec ID : V_MPEG4/ISO/AVC
Duration : 2h 14mn
Bit rate : 7 810 Kbps
Width : 1 280 pixels
Height : 536 pixels
Display aspect ratio : 2.40:1
Frame rate : 23.976 fps
Color space : YUV
Chroma subsampling : 4:2:0
Bit depth : 8 bits
Scan type : Progressive
Bits/(Pixel*Frame) : 0.475
Stream size : 7.15 GiB (73%)
Title : RightSiZE
Writing library : x264 core 144 r2525 40bb568
Encoding settings : cabac=1 / ref=12 / deblock=1:-3:-3 / analyse=0x3:0x113 / me=umh / subme=10 / psy=1 / psy_rd=1.00:0.00 / mixed_ref=1 / me_range=48 / chroma_me=1 / trellis=2 / 8x8dct=1 / cqm=1 / deadzone=21,11 / fast_pskip=0 / chroma_qp_offset=-1 / threads=18 / lookahead_threads=3 / sliced_threads=0 / nr=0 / decimate=1 / interlaced=0 / bluray_compat=0 / constrained_intra=0 / bframes=8 / b_pyramid=2 / b_adapt=2 / b_bias=0 / direct=3 / weightb=1 / open_gop=0 / weightp=2 / keyint=230 / keyint_min=23 / scenecut=40 / intra_refresh=0 / rc_lookahead=40 / rc=2pass / mbtree=0 / bitrate=7810 / ratetol=1.0 / qcomp=0.60 / qpmin=2 / qpmax=53 / qpstep=4 / cplxblur=20.0 / qblur=0.5 / vbv_maxrate=62500 / vbv_bufsize=78125 / nal_hrd=none / filler=0 / ip_ratio=1.00 / pb_ratio=1.00 / aq=3:0.65 / zones=938,1250,b=1.5/2659,11395,b=1.6/4003,11395,b=2/19932,19979,b=2.3/29363,29615,b=2.1/30622,30653,b=1.9/40153,40236,b=1.7/44797,44855,b=3.1/46045,46110,b=1.8/46273,46349,b=1.8/47425,47484,b=2.0/50967,51363,b=2.6/52668,52781,b=1.6/62294,62434,b=2/63223,63327,b=2.5/66534,66593,b=2/67546,67696,b=2.7/89426,90708,b=2.4/106131,107607,b=1.7/108123,108187,b=2/108701,109112,b=2.5/113442,114044,b=1.8/115455,115534,b=2.1/115707,115776,b=1.7/117855,117923,b=1.6/118682,118871,b=2/119222,119380,b=2.5/119579,119803,b=1.6/120064,120126,b=2.2/120319,120351,b=2.1/120807,120869,b=2.3/121586,124146,b=1.3/126931,127985,b=2/130005,130116,b=2.2/140699,140827,b=1.5/143155,143218,b=1.5/144064,144150,b=1.8/147858,148059,b=2.2/149063,177409,b=2.6/184808,193680,b=0.15
Language : English
Default : Yes
Forced : No
Audio #1
ID : 2
Format : AC-3
Format/Info : Audio Coding 3
Mode extension : CM (complete main)
Format settings, Endianness : Big
Codec ID : A_AC3
Duration : 2h 14mn
Bit rate mode : Constant
Bit rate : 640 Kbps
Channel(s) : 6 channels
Channel positions : Front: L C R, Side: L R, LFE
Sampling rate : 48.0 KHz
Bit depth : 16 bits
Compression mode : Lossy
Stream size : 616 MiB (6%)
Title : DUB- Blu-ray EUR
Language : Russian
Default : Yes
Forced : No
Audio #2
ID : 3
Format : AC-3
Format/Info : Audio Coding 3
Mode extension : CM (complete main)
Format settings, Endianness : Big
Codec ID : A_AC3
Duration : 2h 14mn
Bit rate mode : Constant
Bit rate : 640 Kbps
Channel(s) : 6 channels
Channel positions : Front: L C R, Side: L R, LFE
Sampling rate : 48.0 KHz
Bit depth : 16 bits
Compression mode : Lossy
Stream size : 616 MiB (6%)
Title : DUB- Blu-ray EUR
Language : Ukrainian
Default : No
Forced : No
Audio #3
ID : 4
Format : AC-3
Format/Info : Audio Coding 3
Mode extension : CM (complete main)
Format settings, Endianness : Big
Codec ID : A_AC3
Duration : 2h 14mn
Bit rate mode : Constant
Bit rate : 640 Kbps
Channel(s) : 6 channels
Channel positions : Front: L C R, Side: L R, LFE
Sampling rate : 48.0 KHz
Bit depth : 16 bits
Compression mode : Lossy
Stream size : 616 MiB (6%)
Title : VO-Матвеев
Language : Russian
Default : No
Forced : No
Audio #4
ID : 5
Format : AC-3
Format/Info : Audio Coding 3
Mode extension : CM (complete main)
Format settings, Endianness : Big
Codec ID : A_AC3
Duration : 2h 14mn
Bit rate mode : Constant
Bit rate : 640 Kbps
Channel(s) : 6 channels
Channel positions : Front: L C R, Side: L R, LFE
Sampling rate : 48.0 KHz
Bit depth : 16 bits
Compression mode : Lossy
Stream size : 616 MiB (6%)
Title : Original
Language : English
Default : No
Forced : No
Text #1
ID : 6
Format : UTF-8
Codec ID : S_TEXT/UTF8
Codec ID/Info : UTF-8 Plain Text
Title : Sub-Forced
Language : Russian
Default : Yes
Forced : No
Text #2
ID : 7
Format : UTF-8
Codec ID : S_TEXT/UTF8
Codec ID/Info : UTF-8 Plain Text
Title : Sub-BD
Language : Russian
Default : No
Forced : No
Text #3
ID : 8
Format : UTF-8
Codec ID : S_TEXT/UTF8
Codec ID/Info : UTF-8 Plain Text
Title : Sub-Матвеев-цензура
Language : Russian
Default : No
Forced : No
Text #4
ID : 9
Format : UTF-8
Codec ID : S_TEXT/UTF8
Codec ID/Info : UTF-8 Plain Text
Title : Sub-Матвеев-без цензуры
Language : Russian
Default : No
Forced : No
Text #5
ID : 10
Format : UTF-8
Codec ID : S_TEXT/UTF8
Codec ID/Info : UTF-8 Plain Text
Title : Sub-Forced
Language : Ukrainian
Default : No
Forced : No
Text #6
ID : 11
Format : UTF-8
Codec ID : S_TEXT/UTF8
Codec ID/Info : UTF-8 Plain Text
Title : Sub-Forced
Language : English
Default : No
Forced : No
Text #7
ID : 12
Format : UTF-8
Codec ID : S_TEXT/UTF8
Codec ID/Info : UTF-8 Plain Text
Title : Sub-full
Language : English
Default : No
Forced : No
Text #8
ID : 13
Format : UTF-8
Codec ID : S_TEXT/UTF8
Codec ID/Info : UTF-8 Plain Text
Title : Sub-SDH
Language : English
Default : No
Forced : No
Text #9
ID : 14
Format : UTF-8
Codec ID : S_TEXT/UTF8
Codec ID/Info : UTF-8 Plain Text
Title : Sub-SDH COLORED
Language : English
Default : No
Forced : No
Menu
00:00:00.000 : en:1.
00:07:58.228 : en:2.
00:20:24.682 : en:3.
00:26:38.931 : en:4.
00:37:26.035 : en:5.
00:43:24.060 : en:6.
00:51:59.408 : en:7.
01:01:20.302 : en:8.
01:13:46.547 : en:9.
01:18:29.705 : en:10.
01:26:21.802 : en:11.
01:29:50.427 : en:12.
01:35:39.192 : en:13.
01:48:12.111 : en:14.
01:57:49.980 : en:15.
02:00:41.609 : en:16.
Скриншоты
Source vs Encode


Скачать

Скачать торрент!

Как скачивать? · Что такое торрент? · Рейтинг и ограничения

Сайт не распространяет и не хранит электронные версии произведений, а лишь предоставляет доступ к создаваемому пользователями каталогу ссылок на торрент-файлы, которые содержат только списки хеш-сумм

[Профиль] [ЛС]
Показать сообщения:    
Ответить на тему

Текущее время: Сегодня 07:01

Часовой пояс: GMT + 4



Вы не можете начинать темы
Вы не можете отвечать на сообщения
Вы не можете редактировать свои сообщения
Вы не можете удалять свои сообщения
Вы не можете голосовать в опросах
Вы не можете прикреплять файлы к сообщениям
Вы не можете скачивать файлы