Танго мотылька (Игорь Мужжухин) [2015, Мелодрама, HDTVRip]

Ответить на тему
 
Автор Сообщение

user ®

Стаж: 7 лет 7 месяцев

Сообщений: 20008

Пост Пост: #1 от 31-Мар-2015 20:48

[Цитировать]

Танго мотылька- Жанр: Мелодрама
Год выпуска: 2015
Продолжительность: 01:29:11
Режиссёр: Игорь Мужжухин-В ролях: Дарья Щербакова, Сергей Мухин, Анастасия Асеева, Дмитрий Куличков, Павел Кузьмин, Николай Лунин (II), Анна Швол, Руслан Джайбеков, Алла Подчуфарова, Светлана Йозефий, Сергей Карякин, Александр Алёшкин-Описание: Казалось бы, ничто и никогда не сможет разрушить идиллии, которая царит в семье Ани. Вот-вот они с мужем станут родителями: через несколько месяцев эта красивая женщина, которая не представляет своей жизни без любимого мужчины, станет мамой. Но у жестокой судьбы совсем другие планы на будущее...-Сэмпл
[url=http://***/forum/tracker.php?nm=Танго%20мотылька]Все раздачи[/url]
Rip: Files-x-Качество видео: HDTVRip
Формат видео: AVI
Видео: XviD, 1 985 Kbps, 720Х400, 16:9, 25.000 fps, 8 bits, Bits/(Pixel*Frame) 0.276
Аудио: AC-3, 192 Kbps, 2 channels, 48.0 KHz, 16 bits
MediaInfo
General
Complete name : E:\Фильмы\Танго мотылька.2015.HDTVRip.Files-x.avi
Format : AVI
Format/Info : Audio Video Interleave
Format profile : OpenDML
File size : 1.37 GiB
Duration : 1h 29mn
Overall bit rate : 2 190 Kbps
Writing application : Lavf53.19.0
Video
ID : 0
Format : MPEG-4 Visual
Format profile : Advanced Simple@L5
Format settings, BVOP : Yes
Format settings, QPel : No
Format settings, GMC : No warppoints
Format settings, Matrix : Custom
Codec ID : XVID
Codec ID/Hint : XviD
Duration : 1h 29mn
Bit rate : 1 985 Kbps
Width : 720 pixels
Height : 400 pixels
Display aspect ratio : 16:9
Frame rate : 25.000 fps
Color space : YUV
Chroma subsampling : 4:2:0
Bit depth : 8 bits
Scan type : Progressive
Compression mode : Lossy
Bits/(Pixel*Frame) : 0.276
Stream size : 1.24 GiB (91%)
Writing library : XviD 73
Audio
ID : 1
Format : AC-3
Format/Info : Audio Coding 3
Mode extension : CM (complete main)
Format settings, Endianness : Big
Codec ID : 2000
Duration : 1h 29mn
Bit rate mode : Constant
Bit rate : 192 Kbps
Channel(s) : 2 channels
Channel positions : Front: L R
Sampling rate : 48.0 KHz
Bit depth : 16 bits
Compression mode : Lossy
Stream size : 123 MiB (9%)
Alignment : Aligned on interleaves
Interleave, duration : 32 ms (0.80 video frame)
Скриншот c названием фильма Скриншоты
Скачать

Скачать торрент!

Как скачивать? · Что такое торрент? · Рейтинг и ограничения

Сайт не распространяет и не хранит электронные версии произведений, а лишь предоставляет доступ к создаваемому пользователями каталогу ссылок на торрент-файлы, которые содержат только списки хеш-сумм

[Профиль] [ЛС]
Показать сообщения:    
Ответить на тему

Текущее время: Сегодня 22:40

Часовой пояс: GMT + 4



Вы не можете начинать темы
Вы не можете отвечать на сообщения
Вы не можете редактировать свои сообщения
Вы не можете удалять свои сообщения
Вы не можете голосовать в опросах
Вы не можете прикреплять файлы к сообщениям
Вы не можете скачивать файлы