Бадди Хатчинс / Buddy Hutchins (Джаред Кон / Jared Cohn) [2015, США, триллер, WEB-DLRip] VO (Xixidok)

Ответить на тему
 
Автор Сообщение

user ®

Стаж: 7 лет 7 месяцев

Сообщений: 20008

Пост Пост: #1 от 31-Мар-2015 11:30

[Цитировать]

Бадди Хатчинс / Buddy Hutchins
Страна: США
Жанр: триллер
Год выпуска: 2014
Продолжительность: 01:34:56
Перевод: Одноголосый (закадровый) [Xixidok]
Оригинальная аудиодорожка: английская
Cубтитры: нет
Режиссер: Джаред Кон / Jared Cohn
В ролях: Джейми Кеннеди, Сэлли Кёркленд, Сара Малакул Лейн, Дэвид Гир, Стив Хэнкс, Николь Александра Шипли, Деметриус Стеар, Эдвард ДеРуитер
Описание: Бадди Хатчинс — обычный парень, который делает все возможное, чтобы содержать жену и двух детей. Выздоравливающий алкоголик Бадди, не выпивал уже больше года, но оказывается, что единственная награда за свой трезвый образ жизни, это неудачи в бизнесе и измена жены. И вот, когда чаша терпения переполнена, достаточно небольшого толчка, маленькой оплеухи или грубого слова, чтобы такой парень взял в руки бензопилу и пошёл крушить всё вокруг.

Качество: WEB-DLRip
Контейнер: AVI
Видео: 688x288 (2.39:1), 23.976 fps, XviD build 50 ~936 kbps avg, 0.20 bit/pixel
Аудио: 44.100 kHz, MPEG Layer 3, 2 ch, ~128.00 kbps avg

MI
Общее
Полное имя : C:\Users\Вячеслав\Downloads\Buddy_Hutchi_Некул.avi
Формат : AVI
Формат/Информация : Audio Video Interleave
Размер файла : 744 Мбайт
Продолжительность : 1 ч. 36 м.
Общий поток : 1074 Кбит/сек
Программа кодирования : VirtualDubMod 1.5.10.3 | www.virtualdub-fr.org || (build 2550/release)
Библиотека кодирования : VirtualDubMod build 2550/release
Видео
Идентификатор : 0
Формат : MPEG-4 Visual
Профиль формата : Advanced Simple@L5
Параметр BVOP формата : 2
Параметр QPel формата : Нет
Параметр GMC формата : Без точки перехода
Параметр матрицы формата : Default (MPEG)
Идентификатор кодека : XVID
Идентификатор кодека/Подсказка : XviD
Продолжительность : 1 ч. 36 м.
Битрейт : 937 Кбит/сек
Ширина : 688 пикселей
Высота : 288 пикселей
Соотношение сторон : 2,40:1
Частота кадров : 23,976 кадра/сек
Цветовое пространство : YUV
Субдискретизация насыщенности : 4:2:0
Битовая глубина : 8 бит
Тип развёртки : Прогрессивная
Метод сжатия : С потерями
Бит/(Пиксели*Кадры) : 0.197
Размер потока : 649 Мбайт (87%)
Библиотека кодирования : XviD 1.2.1 (UTC 2008-12-04)
Аудио
Идентификатор : 1
Формат : MPEG Audio
Версия формата : Version 1
Профиль формата : Layer 3
Идентификатор кодека : 55
Идентификатор кодека/Подсказка : MP3
Продолжительность : 1 ч. 36 м.
Вид битрейта : Постоянный
Битрейт : 128 Кбит/сек
Каналы : 2 канала
Частота : 44,1 КГц
Метод сжатия : С потерями
Размер потока : 88,6 Мбайт (12%)
Выравнивание : Разделение по промежуткам
Продолжительность промежутка : 42 мс. (1,00 видеокадр)
Время предзагрузки промежутка : 500 мс.
Библиотека кодирования : LAME3.99r
Настройки программы : -m s -V 4 -q 2 -lowpass 17 -b 128
Скриншоты
Скачать

Скачать торрент!

Как скачивать? · Что такое торрент? · Рейтинг и ограничения

Сайт не распространяет и не хранит электронные версии произведений, а лишь предоставляет доступ к создаваемому пользователями каталогу ссылок на торрент-файлы, которые содержат только списки хеш-сумм

[Профиль] [ЛС]
Показать сообщения:    
Ответить на тему

Текущее время: Сегодня 11:42

Часовой пояс: GMT + 4



Вы не можете начинать темы
Вы не можете отвечать на сообщения
Вы не можете редактировать свои сообщения
Вы не можете удалять свои сообщения
Вы не можете голосовать в опросах
Вы не можете прикреплять файлы к сообщениям
Вы не можете скачивать файлы