Убийство в Белом доме / Murder at 1600 (Дуайт Х. Литтл / Dwight H. Little) [1997, США, боевик, триллер, драма, криминал, детектив, HDTV 1080i] Dub (Варус-Видео) + AVO (Живов) + Original Eng + Sub Eng

Ответить на тему
 
Автор Сообщение

user ®

Стаж: 7 лет 7 месяцев

Сообщений: 20008

Пост Пост: #1 от 31-Мар-2015 02:15

[Цитировать]

Убийство в Белом доме / Murder at 1600- Год выпуска: 1997
Страна: США
Жанр: боевик, триллер, драма, криминал, детектив
Продолжительность: 01:46:45
Перевод: Профессиональный (полное дублирование) Варус-Видео
+ Авторский одноголосый Ю.Живов
Оригинальная звуковая дорожка: English
Субтитры: English-Режиссер: Дуайт Х. Литтл / Dwight H. Little
В ролях: Уэсли Снайпс, Дайан Лэйн, Дэниэл Бензали, Дэннис Миллер, Алан Алда, Ронни Кокс, Дайан Бэйкер, Тейт Донован, Харрис Юлин, Том Райт
О фильме: Захват американских заложников в Северной Корее вызвал бурю возмущения в Белом Доме. Президент Америки близок к тому, чтобы принять решение вмешаться и атаковать Корею. Тем временем в самом здании Белого Дома обнаружена убитая женщина, бывший секретарь.
Расследование поручено полицейскому детективу Харлану Реджису, до этого не связанному с правительственными и секретными службами. Именно с последними он натыкается на стену глухого молчания. В этом деле ему не разобраться без помощи очаровательной женщины - секретного агента Нины Ченс, потому что кому, как не ей лучше знать секретную службу изнутри.-Релиз:
Формат: MKV
Источник: Murder at 1600 1997 1080i HDTV DD5.1 MPEG2-Fizo
Видео: 1920x1080 at 29.970 fps, MPEG-2, ~17537 kbps avg
Аудио #01: Russian: 48 kHz, AC3, 2/0 (L,R), ~192 kbps avg |Дубляж, Варус Видео|
Аудио #02: Russian: 48 kHz, AC3, 3/2 (L,C,R,l,r) + LFE ch, ~384 kbps avg |Одноголосый закадровый, Живов|
Аудио #03: English: 48 kHz, AC3, 3/2 (L,C,R,l,r) + LFE ch, ~384 kbps avg |R1|
Семпл-

Скнришоты
-
mInfo
Формат : Matroska
Версия формата : Version 4 / Version 2
Размер файла : 13,8 Гбайт
Продолжительность : 1 ч. 46 м.
Режим общего битрейта : Переменный
Общий поток : 18,5 Мбит/сек
Дата кодирования : UTC 2015-03-29 06:43:32
Программа кодирования : mkvmerge v7.0.0 ('Where We Going') 32bit built on Jun 9 2014 15:08:34
Библиотека кодирования : libebml v1.3.0 + libmatroska v1.4.1
DURATION : 01:43:15.042000000
NUMBER_OF_FRAMES : 1087
NUMBER_OF_BYTES : 34750
_STATISTICS_WRITING_APP : mkvmerge v7.0.0 ('Where We Going') 32bit built on Jun 9 2014 15:08:34
_STATISTICS_WRITING_DATE_UTC : 2015-03-29 06:43:32
_STATISTICS_TAGS : BPS DURATION NUMBER_OF_FRAMES NUMBER_OF_BYTES
Видео
Идентификатор : 1
Формат : MPEG Video
Версия формата : Version 2
Профиль формата : Main@High
Параметр BVOP формата : Да
Параметр матрицы формата : Выборочная
Параметр GOP формата : M=3, N=15
Format_Settings_PictureStructure : Frame
Идентификатор кодека : V_MPEG2
Идентификатор кодека/Информация : MPEG 1 or 2 Video
Продолжительность : 1 ч. 46 м.
Вид битрейта : Переменный
Битрейт : 17,2 Мбит/сек
Максимальный битрейт : 65,0 Мбит/сек
Ширина : 1920 пикселей
Высота : 1080 пикселей
Соотношение сторон : 16:9
Режим частоты кадров : Постоянный
Частота кадров : 29,970 кадров/сек
Цветовое пространство : YUV
Субдискретизация насыщенности : 4:2:0
Битовая глубина : 8 бит
Тип развёртки : Чересстрочная
Порядок развёртки : Верхнее поле первое
Метод сжатия : С потерями
Бит/(Пиксели*Кадры) : 0.276
Временной код первого кадра : 00:00:00;00
Оригинал временного кода : Group of pictures header
Размер потока : 12,8 Гбайт (93%)
Default : Нет
Forced : Нет
DURATION : 01:46:40.794000000
NUMBER_OF_FRAMES : 191832
NUMBER_OF_BYTES : 14041616055
_STATISTICS_WRITING_APP : mkvmerge v7.0.0 ('Where We Going') 32bit built on Jun 9 2014 15:08:34
_STATISTICS_WRITING_DATE_UTC : 2015-03-29 06:43:32
_STATISTICS_TAGS : BPS DURATION NUMBER_OF_FRAMES NUMBER_OF_BYTES
Gop_OpenClosed_FirstFrame : Closed
Аудио #1
Идентификатор : 2
Формат : AC-3
Формат/Информация : Audio Coding 3
Расширение режима : CM (complete main)
Параметр Endianness формата : Big
Идентификатор кодека : A_AC3
Продолжительность : 1 ч. 46 м.
Вид битрейта : Постоянный
Битрейт : 192 Кбит/сек
Каналы : 2 канала
Расположение каналов : Front: L R
Частота : 48,0 КГц
Битовая глубина : 16 бит
Метод сжатия : С потерями
Размер потока : 147 Мбайт (1%)
Заголовок : Dub Варус AC3 2.0 192 kbps
Язык : Russian
Default : Нет
Forced : Нет
Аудио #2
Идентификатор : 3
Формат : AC-3
Формат/Информация : Audio Coding 3
Расширение режима : CM (complete main)
Параметр Endianness формата : Big
Идентификатор кодека : A_AC3
Продолжительность : 1 ч. 46 м.
Вид битрейта : Постоянный
Битрейт : 384 Кбит/сек
Каналы : 6 каналов
Расположение каналов : Front: L C R, Side: L R, LFE
Частота : 48,0 КГц
Битовая глубина : 16 бит
Метод сжатия : С потерями
Размер потока : 293 Мбайт (2%)
Заголовок : Живов AC3 5.1 384 kbps
Язык : Russian
Default : Нет
Forced : Нет
Аудио #3
Идентификатор : 4
Формат : AC-3
Формат/Информация : Audio Coding 3
Расширение режима : CM (complete main)
Параметр Endianness формата : Big
Идентификатор кодека : A_AC3
Продолжительность : 1 ч. 46 м.
Вид битрейта : Постоянный
Битрейт : 384 Кбит/сек
Каналы : 6 каналов
Расположение каналов : Front: L C R, Side: L R, LFE
Частота : 48,0 КГц
Битовая глубина : 16 бит
Метод сжатия : С потерями
Размер потока : 293 Мбайт (2%)
Заголовок : R1 AC3 5.1 384 kbps
Язык : English
Default : Нет
Forced : Нет
Текст
Идентификатор : 5
Формат : UTF-8
Идентификатор кодека : S_TEXT/UTF8
Идентификатор кодека/Информация : UTF-8 Plain Text
Язык : English
Default : Нет
Forced : Нет
-
Скачать

Скачать торрент!

Как скачивать? · Что такое торрент? · Рейтинг и ограничения

Сайт не распространяет и не хранит электронные версии произведений, а лишь предоставляет доступ к создаваемому пользователями каталогу ссылок на торрент-файлы, которые содержат только списки хеш-сумм

[Профиль] [ЛС]
Показать сообщения:    
Ответить на тему

Текущее время: Сегодня 05:54

Часовой пояс: GMT + 4



Вы не можете начинать темы
Вы не можете отвечать на сообщения
Вы не можете редактировать свои сообщения
Вы не можете удалять свои сообщения
Вы не можете голосовать в опросах
Вы не можете прикреплять файлы к сообщениям
Вы не можете скачивать файлы