Самба / Samba (Оливье Накаш / Olivier Nakache, Эрик Толедано / Eric Toledano) [2014, Франция, драма, комедия, BDRip 720p] Dub + Original Fre

Ответить на тему
 
Автор Сообщение

user ®

Стаж: 7 лет 7 месяцев

Сообщений: 20008

Пост Пост: #1 от 31-Мар-2015 02:15

[Цитировать]

Самба / Samba
Страна: Франция
Студия: Canal+ [fr]
Жанр: драма, комедия
Год выпуска: 2014
Продолжительность: 01:58:51
Перевод: Профессиональный (дублированный)
Cубтитры: нет
Оригинальная аудиодорожка: французский
Режиссер: Оливье Накаш Olivier Nakache/ , Эрик Толедано / Eric Toledano
В ролях: Омар Си, Шарлотта Генсбур, Тахар Рахим, Изиа Ижлен, Исака Савадого, Элен Венсан, Янгар Фолл, Кристиана Милле, Жаклин Жеаннеф, Лия Кебе
Описание: Самба — сенегалец, живущий во Франции десять лет, но неудачи все еще преследуют его — он не может устроиться на хорошее место работы. Элис — руководитель высшего звена, буквально «сгорела» на работе. Самба всеми силами пытается получить документы, чтобы трудоустроиться, а Алиса ищет спасения от пустоты собственной жизни. Каждый из них ищет выход из сложившегося тупика, пока в один прекрасный день их судьбы не пересекаются. Между смехом и слезами их история прокладывает себе дорогу к счастью.

Тип релиза: BDRip 720p
Контейнер: MKV
Видео: MPEG-4 AVC, 8172 Кбит/с, 1280x692, 24,000 fps
Аудио: Rus, AC3,448 kb/s (6 ch), 48 kHz
Аудио 2: Fre, AC3, 640 kb/s (6 ch), 48 kHz
MediaInfo
Format : Matroska
Format version : Version 4 / Version 2
File size : 7.84 GiB
Duration : 1h 58mn
Overall bit rate : 9 448 Kbps
Movie name : Samba.2014.D.BDRip.720p.ELEKTRI4KA [3imeMachi9e]
Encoded date : UTC 2015-03-29 11:30:55
Writing application : mkvmerge v7.1.0 ('Good Love') 64bit built on Jul 27 2014 13:06:55
Writing library : libebml v1.3.0 + libmatroska v1.4.1
_STATISTICS_WRITING_APP : mkvmerge v7.1.0 ('Good Love') 64bit built on Jul 27 2014 13:06:55
_STATISTICS_WRITING_DATE_UTC : 2015-03-29 11:30:55
_STATISTICS_TAGS : BPS DURATION NUMBER_OF_FRAMES NUMBER_OF_BYTES
DURATION : 01:58:51.040000000
NUMBER_OF_FRAMES : 222845
NUMBER_OF_BYTES : 570483200
Video
ID : 1
Format : AVC
Format/Info : Advanced Video Codec
Format profile : High@L4.1
Format settings, CABAC : Yes
Format settings, ReFrames : 9 frames
Codec ID : V_MPEG4/ISO/AVC
Bit rate : 8 172 Kbps
Width : 1 280 pixels
Height : 692 pixels
Display aspect ratio : 1.85:1
Frame rate mode : Variable
Original frame rate : 24.000 fps
Color space : YUV
Chroma subsampling : 4:2:0
Bit depth : 8 bits
Scan type : Progressive
Writing library : x264 core 142 r2409kMod d6b4e63
Encoding settings : cabac=1 / ref=9 / deblock=1:-3:-3 / analyse=0x3:0x133 / me=umh / subme=10 / psy=1 / fade_compensate=0.00 / psy_rd=1.00:0.00 / mixed_ref=1 / me_range=32 / chroma_me=1 / trellis=2 / 8x8dct=1 / cqm=0 / deadzone=21,11 / fast_pskip=0 / chroma_qp_offset=-2 / threads=6 / lookahead_threads=1 / sliced_threads=0 / nr=0 / decimate=0 / interlaced=0 / bluray_compat=0 / constrained_intra=0 / fgo=0 / bframes=8 / b_pyramid=2 / b_adapt=2 / b_bias=0 / direct=3 / weightb=1 / open_gop=0 / weightp=2 / keyint=250 / keyint_min=24 / scenecut=40 / intra_refresh=0 / rc=crf / mbtree=0 / crf=15.0000 / qcomp=0.60 / qpmin=0 / qpmax=69 / qpstep=4 / ip_ratio=1.35 / pb_ratio=1.25 / aq=3:0.85
Language : English
Default : Yes
Forced : No
Matrix coefficients : BT.709
_STATISTICS_WRITING_APP : mkvmerge v7.1.0 ('Good Love') 64bit built on Jul 27 2014 13:06:55
_STATISTICS_WRITING_DATE_UTC : 2015-03-29 11:30:55
_STATISTICS_TAGS : BPS DURATION NUMBER_OF_FRAMES NUMBER_OF_BYTES
DURATION : 01:58:51.000000000
NUMBER_OF_FRAMES : 171144
NUMBER_OF_BYTES : 7450190071
Audio #1
ID : 2
Format : AC-3
Format/Info : Audio Coding 3
Mode extension : CM (complete main)
Format settings, Endianness : Big
Codec ID : A_AC3
Duration : 1h 58mn
Bit rate mode : Constant
Bit rate : 448 Kbps
Channel(s) : 6 channels
Channel positions : Front: L C R, Side: L R, LFE
Sampling rate : 48.0 KHz
Bit depth : 16 bits
Compression mode : Lossy
Stream size : 381 MiB (5%)
Title : ELEKTRI4KA
Language : Russian
Default : Yes
Forced : No
Audio #2
ID : 3
Format : AC-3
Format/Info : Audio Coding 3
Mode extension : CM (complete main)
Format settings, Endianness : Big
Codec ID : A_AC3
Duration : 1h 58mn
Bit rate mode : Constant
Bit rate : 640 Kbps
Channel(s) : 6 channels
Channel positions : Front: L C R, Side: L R, LFE
Sampling rate : 48.0 KHz
Bit depth : 16 bits
Compression mode : Lossy
Stream size : 544 MiB (7%)
Language : French
Default : No
Forced : No
Menu
00:00:00.000 : en:00:00:00.000
00:11:12.958 : en:00:11:12.958
00:19:54.833 : en:00:19:54.833
00:31:40.417 : en:00:31:40.417
00:40:49.750 : en:00:40:49.750
00:53:26.500 : en:00:53:26.500
01:01:21.208 : en:01:01:21.208
01:12:46.958 : en:01:12:46.958
01:23:59.667 : en:01:23:59.667
01:33:05.542 : en:01:33:05.542
01:42:50.917 : en:01:42:50.917
01:52:51.625 : en:01:52:51.625
Скриншоты
Скачать

Скачать торрент!

Как скачивать? · Что такое торрент? · Рейтинг и ограничения

Сайт не распространяет и не хранит электронные версии произведений, а лишь предоставляет доступ к создаваемому пользователями каталогу ссылок на торрент-файлы, которые содержат только списки хеш-сумм

[Профиль] [ЛС]
Показать сообщения:    
Ответить на тему

Текущее время: Сегодня 08:55

Часовой пояс: GMT + 4



Вы не можете начинать темы
Вы не можете отвечать на сообщения
Вы не можете редактировать свои сообщения
Вы не можете удалять свои сообщения
Вы не можете голосовать в опросах
Вы не можете прикреплять файлы к сообщениям
Вы не можете скачивать файлы