Геракл: Начало легенды / The Legend of Hercules (Ренни Харлин / Renny Harlin) [2014, США, Болгария, боевик, фэнтези, BDRip 1080p] Dub + Sub Eng + Original Eng

Ответить на тему
 
Автор Сообщение

user ®

Стаж: 7 лет 7 месяцев

Сообщений: 20008

Пост Пост: #1 от 31-Мар-2015 02:15

[Цитировать]

Геракл: Начало легенды / The Legend of Hercules
«Каждый человек имеет судьбу»
Страна: США, Болгария
Студия: Millennium Films
Жанр: боевик, фэнтези
Год выпуска: 2014
Продолжительность: 01:38:39-Перевод: Профессиональный (дублированный)
Cубтитры: английские (вшитые / отключаемые)
Оригинальная аудиодорожка: английский-Режиссер: Ренни Харлин / Renny Harlin-В ролях: Келлан Латс, Скотт Эдкинс, Лиам МакИнтайр, Гайя Уайсс, Лайам Гэрриган, Роксанна МакКи, Раде Шербеджия, Джонатон Шек, Люк Ньюберри, Кеннет Крэнэм...-Описание: 1200 г. до н. э. Древняя Греция. Прекрасная царица Алкмена попала под чары грозного бога Олимпа — Зевса и родила ему сына Геракла. При рождении ему было предсказано стать величайшим воином, который будет властвовать над народами и принесет мир и процветание своей стране. Но пока Геракл ничего не знает о своем предназначении. Он вырос прекрасным и сильным юношей. Он мечтает о любви принцессы Крита, Гебы, которая обещана в жены его брату. Когда Геракл узнает о своей великой миссии, он должен выбрать: сбежать со своей любовью или исполнить свое предназначение.-Доп. информация: Фильм разбит на главы, как в оригинальном Blu-ray диске.- -Тип релиза: BDRip 1080p
Контейнер: MKV-Видео: 11.1 Mbps, 1920*804 (2.40:1), at 23.976 fps, AVC
Аудио 1: Russian 755 Kbps, 48.0 KHz, 16 bits, 6 channels, DTS
Аудио 2: English 1 510 Kbps, 48.0 KHz, 24 bits, 6 channels, DTS
Формат субтитров: softsub (SRT)
-MediaInfo
General
Unique ID : 209795352034307212703169611433459734133 (0x9DD51D7512345228BE1EB32D24525675)
Complete name : D:\Gerakl.2014.D.BDRip.1080p.mkv
Format : Matroska
Format version : Version 4 / Version 2
File size : 9.24 GiB
Duration : 1h 38mn
Overall bit rate : 13.4 Mbps
Encoded date : UTC 2014-09-10 12:23:56
Writing application : mkvmerge v7.1.0 ('Good Love') 64bit built on Jul 27 2014 13:06:55
Writing library : libebml v1.3.0 + libmatroska v1.4.1
DURATION : 01:38:38.880000000
NUMBER_OF_FRAMES : 554895
NUMBER_OF_BYTES : 1116448740
_STATISTICS_WRITING_APP : mkvmerge v7.1.0 ('Good Love') 64bit built on Jul 27 2014 13:06:55
_STATISTICS_WRITING_DATE_UTC : 2014-09-10 12:23:56
_STATISTICS_TAGS : BPS DURATION NUMBER_OF_FRAMES NUMBER_OF_BYTES
Video
ID : 1
Format : AVC
Format/Info : Advanced Video Codec
Format profile : High@L4.1
Format settings, CABAC : Yes
Format settings, ReFrames : 5 frames
Codec ID : V_MPEG4/ISO/AVC
Duration : 1h 38mn
Bit rate : 11.1 Mbps
Width : 1 920 pixels
Height : 804 pixels
Display aspect ratio : 2.40:1
Frame rate mode : Constant
Frame rate : 23.976 fps
Color space : YUV
Chroma subsampling : 4:2:0
Bit depth : 8 bits
Scan type : Progressive
Bits/(Pixel*Frame) : 0.301
Stream size : 7.49 GiB (81%)
Writing library : x264 core 138 r2356 a1d3d17
Encoding settings : cabac=1 / ref=5 / deblock=1:-3:-3 / analyse=0x3:0x113 / me=umh / subme=10 / psy=1 / psy_rd=1.00:0.05 / mixed_ref=1 / me_range=32 / chroma_me=1 / trellis=2 / 8x8dct=1 / cqm=0 / deadzone=21,11 / fast_pskip=0 / chroma_qp_offset=-2 / threads=18 / lookahead_threads=1 / sliced_threads=0 / nr=0 / decimate=1 / interlaced=0 / bluray_compat=0 / constrained_intra=0 / bframes=5 / b_pyramid=2 / b_adapt=2 / b_bias=0 / direct=3 / weightb=1 / open_gop=0 / weightp=2 / keyint=250 / keyint_min=23 / scenecut=40 / intra_refresh=0 / rc=2pass / mbtree=0 / bitrate=11130 / ratetol=1.0 / qcomp=0.70 / qpmin=0 / qpmax=69 / qpstep=4 / cplxblur=20.0 / qblur=0.5 / ip_ratio=1.40 / pb_ratio=1.30 / aq=2:0.90
Language : English
Default : Yes
Forced : No
DURATION : 01:38:38.909000000
NUMBER_OF_FRAMES : 141912
NUMBER_OF_BYTES : 8232677809
_STATISTICS_WRITING_APP : mkvmerge v7.1.0 ('Good Love') 64bit built on Jul 27 2014 13:06:55
_STATISTICS_WRITING_DATE_UTC : 2014-09-10 12:23:56
_STATISTICS_TAGS : BPS DURATION NUMBER_OF_FRAMES NUMBER_OF_BYTES
Audio #1
ID : 2
Format : DTS
Format/Info : Digital Theater Systems
Codec ID : A_DTS
Duration : 1h 38mn
Bit rate mode : Constant
Bit rate : 755 Kbps
Channel(s) : 6 channels
Channel positions : Front: L C R, Side: L R, LFE
Sampling rate : 48.0 KHz
Bit depth : 16 bits
Compression mode : Lossy
Stream size : 532 MiB (6%)
Language : Russian
Default : Yes
Forced : No
Audio #2
ID : 3
Format : DTS
Format/Info : Digital Theater Systems
Codec ID : A_DTS
Duration : 1h 38mn
Bit rate mode : Constant
Bit rate : 1 510 Kbps
Channel(s) : 6 channels
Channel positions : Front: L C R, Side: L R, LFE
Sampling rate : 48.0 KHz
Bit depth : 24 bits
Compression mode : Lossy
Stream size : 1.04 GiB (11%)
Language : English
Default : No
Forced : No
Text
ID : 4
Format : UTF-8
Codec ID : S_TEXT/UTF8
Codec ID/Info : UTF-8 Plain Text
Language : English
Default : No
Forced : No
Menu
00:00:00.000 : en:00:00:00.000
00:14:07.221 : en:00:14:07.221
00:36:13.546 : en:00:36:13.546
00:58:32.676 : en:00:58:32.676
01:18:37.630 : en:01:18:37.630
01:29:12.806 : en:01:29:12.806
Скриншоты -
Скачать

Скачать торрент!

Как скачивать? · Что такое торрент? · Рейтинг и ограничения

Сайт не распространяет и не хранит электронные версии произведений, а лишь предоставляет доступ к создаваемому пользователями каталогу ссылок на торрент-файлы, которые содержат только списки хеш-сумм

[Профиль] [ЛС]
Показать сообщения:    
Ответить на тему

Текущее время: Сегодня 16:06

Часовой пояс: GMT + 4



Вы не можете начинать темы
Вы не можете отвечать на сообщения
Вы не можете редактировать свои сообщения
Вы не можете удалять свои сообщения
Вы не можете голосовать в опросах
Вы не можете прикреплять файлы к сообщениям
Вы не можете скачивать файлы