Капитан Алатристе / Alatriste (Агустин Диас Янес / Agustin Diaz Yanes) [2006, Испания, приключения, биография, драма, BDRip 720p] Dub + 2x AVO (Сербин, Дольский) + 3x VO (Замез, Нурмухаметов, Наследников) + Sub Rus, Eng + Original Spa

Ответить на тему
 
Автор Сообщение

user ®

Стаж: 7 лет 7 месяцев

Сообщений: 20008

Пост Пост: #1 от 31-Мар-2015 02:15

[Цитировать]

Капитан Алатристе / Alatriste Страна: Испания
Студия: Estudios Piccaso & NBC Universal Global Networks
Жанр: приключения, биография, драма
Год выпуска: 2006
Продолжительность: 02:25:05
Перевод 1: Профессиональный (дублированный) Blu-ray
Перевод 2: Авторский (одноголосый закадровый) Сербин
Перевод 3: Авторский (одноголосый закадровый) Дольский
Перевод 4: Одноголосый (закадровый) Замез
Перевод 5: Одноголосый (закадровый) Нурмухаметов
Перевод 6: Одноголосый (закадровый) Наследников
Cубтитры: русские, английские
Оригинальная аудиодорожка: испанский
Режиссер: Агустин Диас Янес / Agustín Díaz Yanes
В ролях: Вигго Мортенсен, Елена Анайя, Унакс Угальде, Эдуард Фернандес, Эдуардо Норьега, Ариадна Хиль, Хуан Эчанове, Хавьер Камара, Антонио Дечент, Бланка Портильо
Описание: Время и место действия - Испания семнадцатого века, эпоха правления Филиппа Четвертого. Этим слабым, подверженным чужому влиянию монархом, с легкостью манипулирует его развращенный, полный интриг двор, где всем заправляет влиятельный граф Ольварес. В этой империи, которая неуклонно движется к своему закату, и разворачиваются приключения Диего Алатристе, гордого солдата на службе Его Величества во Фландрии, а в мирное время - наемника в Мадриде и Севилье. Вместе с этими персонажем мы попадем в мир интриг и предательств, дуэлей и битв, ненависти и любви, разыгранных на фоне удивительно точно реконструированной эпохи.

Тип релиза: BDRip 720p [SbR]
Контейнер: MKV
Исходник: Alatriste 2006 1080p FRA Blu-ray AVC DTS-HD MA 5.1-TayTO
Видео: AVC, 1280x692, 8602Kbps, 24.000 fps
Аудио 1: Russian: 48 kHz, AC3, 3/2 (L,C,R,l,r) + LFE ch, ~448.00 kbps avg |Blu-ray|
Аудио 2: Russian: 48 kHz, AC3, 3/2 (L,C,R,l,r) + LFE ch, ~640.00 kbps avg |Сербин|
Аудио 3: Russian: 48 kHz, AC3, 3/2 (L,C,R,l,r) + LFE ch, ~640.00 kbps avg |Дольский|
Аудио 4: Russian: 48 kHz, AC3, 3/2 (L,C,R,l,r) + LFE ch, ~640.00 kbps avg |Замез|
Аудио 5: Russian: 48 kHz, AC3, 3/2 (L,C,R,l,r) + LFE ch, ~640.00 kbps avg |Нурмухаметов|
Аудио 6: Russian: 48 kHz, AC3, 3/2 (L,C,R,l,r) + LFE ch, ~640.00 kbps avg |Наследников|
Аудио 7: Spanish: 48 kHz, AC3, 3/2 (L,C,R,l,r) + LFE ch, ~640.00 kbps |Original|
Чаптеры: есть, подписаны

MediaInfo
General
Unique ID : 194624876639328139306840364974483741483 (0x926B6345D3E0E583AFE6893C40309B2B)
Complete name : D:\рипы\Alatriste.2006.720p.BluRay.DD5.1.x264-Talian-.mkv
Format : Matroska
Format version : Version 2
File size : 13.1 GiB
Duration : 2h 25mn
Overall bit rate : 12.9 Mbps
Movie name : Alatriste-Talian-
Encoded date : UTC 2015-03-29 17:30:10
Writing application : mkvmerge v5.7.0 ('The Whirlwind') built on Jul 8 2012 20:08:51
Writing library : libebml v1.2.3 + libmatroska v1.3.0
Video
ID : 1
Format : AVC
Format/Info : Advanced Video Codec
Format profile : High@L4.1
Format settings, CABAC : Yes
Format settings, ReFrames : 9 frames
Codec ID : V_MPEG4/ISO/AVC
Duration : 2h 25mn
Bit rate : 8 348 Kbps
Width : 1 280 pixels
Height : 692 pixels
Display aspect ratio : 1.850
Frame rate : 24.000 fps
Color space : YUV
Chroma subsampling : 4:2:0
Bit depth : 8 bits
Scan type : Progressive
Bits/(Pixel*Frame) : 0.393
Stream size : 8.46 GiB (65%)
Title : SbR
Writing library : x264 core 144 r2525kMod 40bb568
Encoding settings : cabac=1 / ref=9 / deblock=1:-3:-3 / analyse=0x3:0x133 / me=umh / subme=11 / psy=1 / fade_compensate=0.00 / psy_rd=1.00:0.00 / mixed_ref=1 / me_range=32 / chroma_me=1 / trellis=2 / 8x8dct=1 / cqm=0 / deadzone=21,11 / fast_pskip=1 / chroma_qp_offset=-2 / threads=12 / lookahead_threads=3 / sliced_threads=0 / nr=0 / decimate=1 / interlaced=0 / bluray_compat=0 / constrained_intra=0 / fgo=0 / bframes=10 / b_pyramid=2 / b_adapt=2 / b_bias=0 / direct=3 / weightb=1 / open_gop=0 / weightp=2 / keyint=250 / keyint_min=24 / scenecut=40 / intra_refresh=0 / rc=crf / mbtree=0 / crf=17.0000 / qcomp=0.65 / qpmin=0 / qpmax=69 / qpstep=4 / ip_ratio=1.25 / pb_ratio=1.20 / aq=1:0.60
Language : Spanish
Default : Yes
Forced : No
Audio #1
ID : 2
Format : AC-3
Format/Info : Audio Coding 3
Mode extension : CM (complete main)
Format settings, Endianness : Big
Codec ID : A_AC3
Duration : 2h 25mn
Bit rate mode : Constant
Bit rate : 448 Kbps
Channel(s) : 6 channels
Channel positions : Front: L C R, Side: L R, LFE
Sampling rate : 48.0 KHz
Bit depth : 16 bits
Compression mode : Lossy
Stream size : 465 MiB (3%)
Title : DUB-Blu-ray
Language : Russian
Default : Yes
Forced : No
Audio #2
ID : 3
Format : AC-3
Format/Info : Audio Coding 3
Mode extension : CM (complete main)
Format settings, Endianness : Big
Codec ID : A_AC3
Duration : 2h 25mn
Bit rate mode : Constant
Bit rate : 640 Kbps
Channel(s) : 6 channels
Channel positions : Front: L C R, Side: L R, LFE
Sampling rate : 48.0 KHz
Bit depth : 16 bits
Compression mode : Lossy
Stream size : 664 MiB (5%)
Title : AVO-Сербин
Language : Russian
Default : No
Forced : No
Audio #3
ID : 4
Format : AC-3
Format/Info : Audio Coding 3
Mode extension : CM (complete main)
Format settings, Endianness : Big
Codec ID : A_AC3
Duration : 2h 25mn
Bit rate mode : Constant
Bit rate : 640 Kbps
Channel(s) : 6 channels
Channel positions : Front: L C R, Side: L R, LFE
Sampling rate : 48.0 KHz
Bit depth : 16 bits
Compression mode : Lossy
Stream size : 664 MiB (5%)
Title : AVO-Дольский
Language : Russian
Default : No
Forced : No
Audio #4
ID : 5
Format : AC-3
Format/Info : Audio Coding 3
Mode extension : CM (complete main)
Format settings, Endianness : Big
Codec ID : A_AC3
Duration : 2h 25mn
Bit rate mode : Constant
Bit rate : 640 Kbps
Channel(s) : 6 channels
Channel positions : Front: L C R, Side: L R, LFE
Sampling rate : 48.0 KHz
Bit depth : 16 bits
Compression mode : Lossy
Stream size : 664 MiB (5%)
Title : VO-Замез
Language : Russian
Default : No
Forced : No
Audio #5
ID : 6
Format : AC-3
Format/Info : Audio Coding 3
Mode extension : CM (complete main)
Format settings, Endianness : Big
Codec ID : A_AC3
Duration : 2h 25mn
Bit rate mode : Constant
Bit rate : 640 Kbps
Channel(s) : 6 channels
Channel positions : Front: L C R, Side: L R, LFE
Sampling rate : 48.0 KHz
Bit depth : 16 bits
Compression mode : Lossy
Stream size : 664 MiB (5%)
Title : VO-Нурмухаметов
Language : Russian
Default : No
Forced : No
Audio #6
ID : 7
Format : AC-3
Format/Info : Audio Coding 3
Mode extension : CM (complete main)
Format settings, Endianness : Big
Codec ID : A_AC3
Duration : 2h 25mn
Bit rate mode : Constant
Bit rate : 640 Kbps
Channel(s) : 6 channels
Channel positions : Front: L C R, Side: L R, LFE
Sampling rate : 48.0 KHz
Bit depth : 16 bits
Compression mode : Lossy
Stream size : 664 MiB (5%)
Title : VO-Наследников
Language : Russian
Default : No
Forced : No
Audio #7
ID : 8
Format : AC-3
Format/Info : Audio Coding 3
Mode extension : CM (complete main)
Format settings, Endianness : Big
Codec ID : A_AC3
Duration : 2h 25mn
Bit rate mode : Constant
Bit rate : 640 Kbps
Channel(s) : 6 channels
Channel positions : Front: L C R, Side: L R, LFE
Sampling rate : 48.0 KHz
Bit depth : 16 bits
Compression mode : Lossy
Stream size : 664 MiB (5%)
Title : Original
Language : Spanish
Default : No
Forced : No
Text #1
ID : 9
Format : UTF-8
Codec ID : S_TEXT/UTF8
Codec ID/Info : UTF-8 Plain Text
Title : Sub
Language : Russian
Default : No
Forced : No
Text #2
ID : 10
Format : UTF-8
Codec ID : S_TEXT/UTF8
Codec ID/Info : UTF-8 Plain Text
Title : Sub
Language : English
Default : No
Forced : No
Text #3
ID : 11
Format : UTF-8
Codec ID : S_TEXT/UTF8
Codec ID/Info : UTF-8 Plain Text
Title : Sub-Forced
Language : French
Default : No
Forced : No
Text #4
ID : 12
Format : UTF-8
Codec ID : S_TEXT/UTF8
Codec ID/Info : UTF-8 Plain Text
Title : Sub
Language : French
Default : No
Forced : No
Menu
00:00:00.000 : fr:L 'Espagne du 17e siècle
00:01:19.958 : fr:Flandres, hiver 1622
00:09:09.500 : fr:Iñigo Balboa
00:13:01.083 : fr:L 'embuscade
00:18:34.500 : fr:Angélica de Alquézar
00:21:09.167 : fr:María de Castro
00:24:28.417 : fr:L 'arrestation
00:30:07.125 : fr:Liens de sang et d'amitié
00:34:39.417 : fr:Le comte-duc d'Olivares
00:40:32.167 : fr:Le siège de Breda
00:49:58.625 : fr:Madrid, 10 ans plus tard
00:55:01.833 : fr:L'or du roi
01:01:20.875 : fr:Les illusions de l'amour
01:04:11.083 : fr:Le recrutement
01:09:24.833 : fr:L'abordage du Niklaasbergen
01:17:03.208 : fr:Règlement de comptes
01:20:36.583 : fr:Les désirs d'Iñigo
01:26:29.083 : fr:Un collier pour une dame
01:31:36.208 : fr:Vivre dans le péché
01:40:08.500 : fr:Le guet-apens
01:46:08.042 : fr:Iñigo vs Malatesta
01:52:09.792 : fr:Le destin de María
01:57:10.875 : fr:La comtesse d'Olivares
02:01:14.958 : fr:Le retour d'Iñigo
02:03:54.000 : fr:Rocroi, mai 1643
02:09:22.583 : fr:La reddition
02:14:55.625 : fr:La gloire du tercio de Cartagène
02:17:09.667 : fr:Générique de fin
Доп.информация
За русские и сабы огромное спасибо Skazhutin
За исходную дорогу Нурмухаметова спасибо G00ba
Скриншоты
Source vs Encode


Скачать

Скачать торрент!

Как скачивать? · Что такое торрент? · Рейтинг и ограничения

Сайт не распространяет и не хранит электронные версии произведений, а лишь предоставляет доступ к создаваемому пользователями каталогу ссылок на торрент-файлы, которые содержат только списки хеш-сумм

[Профиль] [ЛС]
Показать сообщения:    
Ответить на тему

Текущее время: Сегодня 14:35

Часовой пояс: GMT + 4



Вы не можете начинать темы
Вы не можете отвечать на сообщения
Вы не можете редактировать свои сообщения
Вы не можете удалять свои сообщения
Вы не можете голосовать в опросах
Вы не можете прикреплять файлы к сообщениям
Вы не можете скачивать файлы