Дух мщения / Перехватчик / The Wraith (Майк Марвин / Mike Marvin) [1986, США, Канада, фантастика, боевик, триллер, мелодрама, BDRip 720p] 3х DVO + AVO + Sub Rus, Eng + Original Eng

Ответить на тему
 
Автор Сообщение

user ®

Стаж: 7 лет 7 месяцев

Сообщений: 20008

Пост Пост: #1 от 31-Мар-2015 02:15

[Цитировать]

Дух мщения / Перехватчик / The Wraith Страна: США, Канада
Студия: New Century Entertainment Corporation, Alliance Entertainment, Turbo Productions
Жанр: фантастика, боевик, триллер, мелодрама
Год выпуска: 1986
Продолжительность: 01:33:11
Перевод 1: Профессиональный (двухголосый закадровый) - ["Велес" - DVD9.R5 «CP-Digital» 2009]
Перевод 2: Профессиональный (двухголосый закадровый) - ["СВ-Кадр", 1996]
Перевод 3: Профессиональный (двухголосый закадровый) - [ТВ3]
Перевод 4: Авторский (одноголосый закадровый) - [Ю.Немахов]
Cубтитры: русские, английские (SDH)
Оригинальная аудиодорожка: английский
Режиссер: Майк Марвин / Mike Marvin
В ролях: Чарли Шин, Ник Кассаветис, Шерилин Фенн, Рэнди Куэйд, Мэттью Бэрри, Дэвид Шерилл, Джэми Бозиан, Клинт Ховард, Гриффин О’Нил, Крис Нэш, Стивен Экхольд, Элизабет Кокс, Кристофер Брэдли, Брук Бурк
Описание: Банда подростков останавливают водителей и заставляют их участвовать в гонках, ставка в которых — машина, принадлежащая несчастным, попавшимся им на пути. Молодой парень, погибший от рук этих бандитов, возвращается с того света в виде призрака на черном гоночном автомобиле и начинает мстить за свою смерть, вызывая подонков на дуэль и убивая их одного за одним…- -Тип релиза: BDRip 720p BDRip 720p ([url=http://***/forum/viewtopic.php?t=4957710]Исходник: ITA Blu-ray / 1080p / AVC / 23,976 fps / 25280 kbps / AC3 2.0 dual mono 192 kbps - Bess80[/url])
Контейнер: MKV
Видео: MPEG-4 AVC Video, 1280x720 / 1,78:1 (16:9) / ~10830 kbps / 23,976 fps / High@L4.1 / 2pass
Аудио 1: Russian: AC3, 6 ch, 448 kbps, 48 kHz | двухголосый ["Велес"]
Аудио 2: Russian: AC3, 6 ch, 448 kbps, 48 kHz | двухголосый ["СВ-Кадр"]
Аудио 3: Russian: AC3, 2.0 ch, 192 kbps, 48 kHz | двухголосый [ТВ3]
Аудио 4: Russian: AC3, 6 ch, 384 kbps, 48 kHz | [одноголосый]
Аудио 5: English: AC3, 2.0 ch, 192 kbps, 48 kHz | DVD.NTSC
Аудио 6: English: AC3, 6 ch, 448 kbps, 48 kHz | DVD.PAL
Формат субтитров: softsub (SRT)
Главы:
х264 Log
x264 [info]: frame I:948 Avg QP:15.70 size:139550
x264 [info]: frame P:27278 Avg QP:17.86 size: 80906
x264 [info]: frame B:105830 Avg QP:19.72 size: 49369
x264 [info]: consecutive B-frames: 2.0% 2.8% 6.6% 15.9% 14.2% 34.8% 9.6% 3.8% 2.8% 3.0% 2.0% 1.4% 1.2%
MediaInfo
Общее
Уникальный идентификатор : 203535640086111389061050915460266936900 (0x991F89D48772317BB6CA96864DBD4A44)
Полное имя : N:\Дух мщения (Перехватчик) 1986.ITA_transfer.BDRip.720p.3хПД.АО.Eng2.mkv
Формат : Matroska
Версия формата : Version 4 / Version 2
Размер файла : 8,42 Гбайт
Продолжительность : 1 ч. 33 м.
Общий поток : 12,9 Мбит/сек
Название фильма : The Wraith (1986) [ITA Blu-ray 1080p]
Дата кодирования : UTC 2015-03-29 15:28:22
Программа кодирования : mkvmerge v7.8.0 ('River Man') 32bit built on Mar 27 2015 16:18:02
Библиотека кодирования : libebml v1.3.1 + libmatroska v1.4.2
Видео
Идентификатор : 1
Формат : AVC
Формат/Информация : Advanced Video Codec
Профиль формата : High@L4.1
Параметр CABAC формата : Да
Параметр ReFrames формата : 9 кадров
Идентификатор кодека : V_MPEG4/ISO/AVC
Продолжительность : 1 ч. 33 м.
Битрейт : 10,8 Мбит/сек
Ширина : 1280 пикселей
Высота : 720 пикселей
Соотношение сторон : 16:9
Режим частоты кадров : Постоянный
Частота кадров : 23,976 кадра/сек
Цветовое пространство : YUV
Субдискретизация насыщенности : 4:2:0
Битовая глубина : 8 бит
Тип развёртки : Прогрессивная
Бит/(Пиксели*Кадры) : 0.490
Размер потока : 6,87 Гбайт (82%)
Библиотека кодирования : x264 core 146 r2538 121396с
Настройки программы : cabac=1 / ref=9 / deblock=1:-3:-3 / analyse=0x3:0x133 / me=umh / subme=10 / psy=1 / psy_rd=1.05:0.05 / mixed_ref=1 / me_range=48 / chroma_me=1 / trellis=2 / 8x8dct=1 / cqm=0 / deadzone=21,11 / fast_pskip=0 / chroma_qp_offset=-2 / threads=6 / lookahead_threads=1 / sliced_threads=0 / nr=0 / decimate=0 / interlaced=0 / bluray_compat=0 / constrained_intra=0 / bframes=12 / b_pyramid=2 / b_adapt=2 / b_bias=0 / direct=3 / weightb=1 / open_gop=0 / weightp=2 / keyint=240 / keyint_min=23 / scenecut=40 / intra_refresh=0 / rc_lookahead=80 / rc=2pass / mbtree=0 / bitrate=10830 / ratetol=1.0 / qcomp=0.70 / qpmin=4 / qpmax=64 / qpstep=4 / cplxblur=20.0 / qblur=0.5 / vbv_maxrate=50000 / vbv_bufsize=62500 / nal_hrd=none / ip_ratio=1.40 / pb_ratio=1.30 / aq=1:0.85
Язык : English
Default : Да
Forced : Нет
Аудио #1
Идентификатор : 2
Формат : AC-3
Формат/Информация : Audio Coding 3
Расширение режима : CM (complete main)
Параметр Endianness формата : Big
Идентификатор кодека : A_AC3
Продолжительность : 1 ч. 33 м.
Вид битрейта : Постоянный
Битрейт : 448 Кбит/сек
Каналы : 6 каналов
Расположение каналов : Front: L C R, Side: L R, LFE
Частота : 48,0 КГц
Битовая глубина : 16 бит
Метод сжатия : С потерями
Размер потока : 299 Мбайт (3%)
Заголовок : AC3 6ch 448kbps - двухголосый ("Велес" - DVD9.R5 «CP-Digital» 2009)
Язык : Russian
Default : Да
Forced : Нет
Аудио #2
Идентификатор : 3
Формат : AC-3
Формат/Информация : Audio Coding 3
Расширение режима : CM (complete main)
Параметр Endianness формата : Big
Идентификатор кодека : A_AC3
Продолжительность : 1 ч. 33 м.
Вид битрейта : Постоянный
Битрейт : 448 Кбит/сек
Каналы : 6 каналов
Расположение каналов : Front: L C R, Side: L R, LFE
Частота : 48,0 КГц
Битовая глубина : 16 бит
Метод сжатия : С потерями
Размер потока : 299 Мбайт (3%)
Заголовок : AC3 6ch 448kbps - двухголосый ("СВ-Кадр", 1996)
Язык : Russian
Default : Нет
Forced : Нет
Аудио #3
Идентификатор : 4
Формат : AC-3
Формат/Информация : Audio Coding 3
Расширение режима : CM (complete main)
Параметр Endianness формата : Big
Идентификатор кодека : A_AC3
Продолжительность : 1 ч. 33 м.
Вид битрейта : Постоянный
Битрейт : 192 Кбит/сек
Каналы : 2 канала
Расположение каналов : Front: L R
Частота : 48,0 КГц
Битовая глубина : 16 бит
Метод сжатия : С потерями
Размер потока : 128 Мбайт (1%)
Заголовок : AC3 2.0ch 192kbps - двухголосый (ТВ3)
Язык : Russian
Default : Нет
Forced : Нет
Аудио #4
Идентификатор : 5
Формат : AC-3
Формат/Информация : Audio Coding 3
Расширение режима : CM (complete main)
Параметр Endianness формата : Big
Идентификатор кодека : A_AC3
Продолжительность : 1 ч. 33 м.
Вид битрейта : Постоянный
Битрейт : 384 Кбит/сек
Каналы : 6 каналов
Расположение каналов : Front: L C R, Side: L R, LFE
Частота : 48,0 КГц
Битовая глубина : 16 бит
Метод сжатия : С потерями
Размер потока : 256 Мбайт (3%)
Заголовок : AC3 6ch 384kbps - одноголосый (Немахов)
Язык : Russian
Default : Нет
Forced : Нет
Аудио #5
Идентификатор : 6
Формат : AC-3
Формат/Информация : Audio Coding 3
Расширение режима : CM (complete main)
Параметр Endianness формата : Big
Идентификатор кодека : A_AC3
Продолжительность : 1 ч. 33 м.
Вид битрейта : Постоянный
Битрейт : 192 Кбит/сек
Каналы : 2 канала
Расположение каналов : Front: L R
Частота : 48,0 КГц
Битовая глубина : 16 бит
Метод сжатия : С потерями
Размер потока : 128 Мбайт (1%)
Заголовок : AC3 2.0ch 192kbps (DVD.NTSC)
Язык : English
Default : Нет
Forced : Нет
Аудио #6
Идентификатор : 7
Формат : AC-3
Формат/Информация : Audio Coding 3
Расширение режима : CM (complete main)
Параметр Endianness формата : Big
Идентификатор кодека : A_AC3
Продолжительность : 1 ч. 33 м.
Вид битрейта : Постоянный
Битрейт : 448 Кбит/сек
Каналы : 6 каналов
Расположение каналов : Front: L C R, Side: L R, LFE
Частота : 48,0 КГц
Битовая глубина : 16 бит
Метод сжатия : С потерями
Размер потока : 299 Мбайт (3%)
Заголовок : AC3 6ch 448kbps (DVD.PAL)
Язык : English
Default : Нет
Forced : Нет
Текст #1
Идентификатор : 8
Формат : UTF-8
Идентификатор кодека : S_TEXT/UTF8
Идентификатор кодека/Информация : UTF-8 Plain Text
Язык : Russian
Default : Нет
Forced : Нет
Текст #2
Идентификатор : 9
Формат : UTF-8
Идентификатор кодека : S_TEXT/UTF8
Идентификатор кодека/Информация : UTF-8 Plain Text
Язык : English
Default : Нет
Forced : Нет
Меню
00:00:00.000 : en: 00:00:00
00:08:04.534 : en: 00:08:04
00:17:43.613 : en: 00:17:43
00:22:20.140 : en: 00:22:20
00:32:15.485 : en: 00:32:15
00:39:40.638 : en: 00:39:40
00:46:55.489 : en: 00:46:55
00:54:52.091 : en: 00:54:52
01:01:36.579 : en: 01:01:36
01:08:57.394 : en: 01:08:57
01:17:27.070 : en: 01:17:27
01:24:33.789 : en: 01:24:33
01:32:49.159 : en: 01:32:49

-
Скриншоты

Доп Интересное
Второе название фильма — «Перехватчик».
Фильм посвящен памяти Брюса Ингрэма, который работал над фильмом в качестве ассистента оператора.
Чарли Шин почти не участвовал в съемочном процессе, т. к. ему нужно было уезжать на съемки другого фильма. Поэтому все сцены с его участием были сняты за первые две недели съемок.
Автомобиль мстителя — Dodge M4S (PPG Turbo Interceptor), концепт-кар, не вышедший в серийное производство из-за высокой стоимости. Всего произведено 6 автомобилей, 4 из которых были разбиты во время съёмок этого фильма.
Скачать

Скачать торрент!

Как скачивать? · Что такое торрент? · Рейтинг и ограничения

Сайт не распространяет и не хранит электронные версии произведений, а лишь предоставляет доступ к создаваемому пользователями каталогу ссылок на торрент-файлы, которые содержат только списки хеш-сумм

[Профиль] [ЛС]
Показать сообщения:    
Ответить на тему

Текущее время: Сегодня 17:30

Часовой пояс: GMT + 4



Вы не можете начинать темы
Вы не можете отвечать на сообщения
Вы не можете редактировать свои сообщения
Вы не можете удалять свои сообщения
Вы не можете голосовать в опросах
Вы не можете прикреплять файлы к сообщениям
Вы не можете скачивать файлы