Форсаж 5 / Fast Five (Джастин Лин / Justin Lin) [2011, США, боевик, криминал, триллер, HDTVRip 720p] Dub

Ответить на тему
 
Автор Сообщение

user ®

Стаж: 7 лет 7 месяцев

Сообщений: 20008

Пост Пост: #1 от 31-Мар-2015 02:15

[Цитировать]

Форсаж 5 / Fast Five -Страна: США
Жанр: боевик, криминал, триллер
Год выпуска: 2011
Продолжительность: 01:59:03-Перевод: Профессиональный (дублированный)
Cубтитры: нет
Оригинальная аудиодорожка: нет-Режиссер: Джастин Лин / Justin Lin-В ролях: Вин Дизель, Пол Уокер, Мэтт Шульце, Тайриз Гибсон, Лудакрис, Дуэйн Джонсон, Дон Омар, Джордана Брюстер, Эльза Патаки, Галь Гадот, Тего Калдерон.-Описание: Освободив Доминика из-под стражи, Брайан и Миа Торетто были вынуждены пересечь несколько границ, чтобы укрыться от властей. Загнанным в угол с Рио-де-Жанейро, им предстоит выполнить последнюю работу во имя собственной свободы. Собирая команду самых лучших гонщиков, они понимают, что противостоять им предстоит коррумпированному дельцу, желающему их смерти. Но он не единственный, кто идет по следу героев. Крутой федеральный агент Люк Хоббс всегда выходит победителем — а в этот раз заданием его отряда стала поимка Дома и Брайана.-Доп. информация: HDTV имеет иное наполнение кадра, чем BD http://screenshotcomparison.com/comparison/113475-Тип релиза: HDTVRip 720p [Сэмпл]
Источник: [url=http://***/forum/viewtopic.php?t=4948611]HDTV 1080i[/url]
Контейнер: MKV
Видео: MPEG4 Video (H264) 1280x720 8bit 25fps 7 000 Kbps
Аудио: Dolby AC3 48000Hz stereo 2ch 192 Kbps
Скриншоты MediaInfo
Format : MPEG-4Format profile : Base MediaCodec ID : isomFile size : 6.00 GiBDuration : 1h 59mnOverall bit rate : 7 189 KbpsEncoded date : UTC 2015-03-30 19:46:53Tagged date : UTC 2015-03-30 19:46:53
VideoID : 1Format : AVCFormat/Info : Advanced Video CodecFormat profile : High@L4.1Format settings, CABAC : YesFormat settings, ReFrames : 12 framesCodec ID : avc1Codec ID/Info : Advanced Video CodingDuration : 1h 59mnBit rate : 7 000 KbpsMaximum bit rate : 16.7 MbpsWidth : 1 280 pixelsHeight : 720 pixelsDisplay aspect ratio : 16:9Frame rate mode : ConstantFrame rate : 25.000 fpsColor space : YUVChroma subsampling : 4:2:0Bit depth : 8 bitsScan type : ProgressiveBits/(Pixel*Frame) : 0.304Stream size : 5.83 GiB (97%)Writing library : x264 core 142 r2431+42 c69a006 tMod [8-bit@all X86_64]Encoding settings : cabac=1 / ref=12 / deblock=1:-2:-2 / analyse=0x3:0x133 / me=umh / subme=10 / psy=1 / fade_compensate=0.00 / psy_rd=0.70:0.00 / mixed_ref=1 / me_range=32 / chroma_me=1 / trellis=2 / 8x8dct=1 / cqm=0 / deadzone=21,11 / fast_pskip=1 / chroma_qp_offset=-2 / threads=12 / lookahead_threads=2 / sliced_threads=0 / nr=0 / decimate=0 / interlaced=0 / bluray_compat=0 / constrained_intra=0 / fgo=0 / bframes=7 / b_pyramid=2 / b_adapt=2 / b_bias=0 / direct=3 / weightb=1 / open_gop=0 / weightp=2 / keyint=250 / keyint_min=25 / scenecut=40 / intra_refresh=0 / rc=2pass / mbtree=0 / bitrate=7000 / ratetol=1.0 / qcomp=0.60 / qpmin=10:10:10 / qpmax=38:38:38 / qpstep=4 / cplxblur=20.0 / qblur=0.5 / ip_ratio=1.40 / pb_ratio=1.30 / aq=1:1.00 / aq-sensitivity=10.00 / aq-factor=1.00:1.00:1.00 / aq2=0 / aq3=0Encoded date : UTC 2015-03-30 19:46:53Tagged date : UTC 2015-03-30 19:51:08Color primaries : BT.709Transfer characteristics : BT.709Matrix coefficients : BT.709
AudioID : 2Format : AC-3Format/Info : Audio Coding 3Mode extension : CM (complete main)Format settings, Endianness : BigCodec ID : ac-3Duration : 1h 59mnBit rate mode : ConstantBit rate : 192 KbpsChannel(s) : 2 channelsChannel positions : Front: L RSampling rate : 48.0 KHzBit depth : 16 bitsCompression mode : LossyStream size : 164 MiB (3%)Encoded date : UTC 2015-03-30 19:50:47Tagged date : UTC 2015-03-30 19:51:08
Скачать

Скачать торрент!

Как скачивать? · Что такое торрент? · Рейтинг и ограничения

Сайт не распространяет и не хранит электронные версии произведений, а лишь предоставляет доступ к создаваемому пользователями каталогу ссылок на торрент-файлы, которые содержат только списки хеш-сумм

[Профиль] [ЛС]
Показать сообщения:    
Ответить на тему

Текущее время: Сегодня 10:53

Часовой пояс: GMT + 4



Вы не можете начинать темы
Вы не можете отвечать на сообщения
Вы не можете редактировать свои сообщения
Вы не можете удалять свои сообщения
Вы не можете голосовать в опросах
Вы не можете прикреплять файлы к сообщениям
Вы не можете скачивать файлы