Вечная сказка любви / Dharam Veer (Манмохан Десаи / Manmohan Desai) [1977, Индия, Мелодрама, фэнтези, DVDRip] [Полная версия] MVO (Формат АВ)

Ответить на тему
 
Автор Сообщение

user ®

Стаж: 13 лет

Сообщений: 15070

Пост Пост: #1 от 30-Мар-2015 13:51

[Цитировать]

Вечная сказка любви / Dharam Veer / Полная версия
Страна: Индия
Жанр: Мелодрама, фэнтези
Год выпуска: 1977
Продолжительность: 02:37:24
Перевод: Профессиональный (многоголосый закадровый) Формат АВ
Cубтитры: нет
Режиссер: Манмохан Десаи / Manmohan Desai
В ролях: Дхармендра, Зинат Аман, Джитендра, Ниту Сингх, Пран, Шеру, Бобби Деол, Индрани Мукерджи, Дживан, Суджит Кумар, Азад, Геркулес, Д.К. Сапру, Б.М. Вьяс, Прадип Кумар, Ченд Усмани, Ранджит, Махараджа Пратап Сингх
Описание: Как-то раз в одном из индийских княжеств приключилась занимательная история. Принцесса Минакши полюбила бедного охотника Джавалу, единственное богатство которого заключалось в выдающихся личных качествах и в ручном разумном соколе. После ночи любви в лесной сторожке к порогу дома пришла тигрица, жаждущая отомстить за убитого принцессой тигра. Джавала бросился защищать любимую и, будучи жестоко ранен зверем, упал в бушующий водопад. Минакши сочла его погибшим и потеряла рассудок. В невменяемом состоянии ее выдали замуж за махараджу из соседнего княжества. После свадьбы принцесса сразу пришла в себя и поняла, что беременна. Новоявленный муж проявил невиданное благородство, пообещал не вступать с ней в любовную связь, а ребенка - воспитать как наследника, однако ушел на войну, откуда вскорости принесли его бездыханное тело. Минакши родила двойню, но первенца задумал уничтожить мерзкий родственник красавицы. Совершить злодейство ему помешал умный сокол, который отнес мальчика в дом кузнеца, где в это время лежал раненый Джавала. Злодей не растерялся и тут же подменил оставшегося младенца на собственного ребенка, дабы тот вырос и стал махараджей. Его сердобольная жена, мучимая совестью, втайне от мужа совершила обратный обмен. Когда Джавала пришел в себя, он покинул дом кузнеца, не ведая о произошедших событиях. Прошло двадцать лет, и дети выросли…
Доп. информация: Исходник DVD-9 (СПАСИБО! debby,KASIR)
Сэмпл: http://multi-up.com/1041026
Качество видео: DVDRip
Формат видео: AVI
Видео: XviD build 50, 640x480 (1.33:1), 23.976 fps, 1667 kbps avg
Аудио: AC3 Dolby Digital, 48 kHz, 2/0 (L,R) ch, 192.00 kbps avg
MediaInfo
General
Complete name : D:\Vechnaya.skazka.lubvi.1977.DVDRip-Dego.avi
Format : AVI
Format/Info : Audio Video Interleave
Format profile : OpenDML
File size : 2.05 GiB
Duration : 2h 37mn
Overall bit rate : 1 866 Kbps
Writing application : VirtualDubMod 1.5.10.2 (build 2540/release)
Writing library : VirtualDubMod build 2540/release
Video
ID : 0
Format : MPEG-4 Visual
Format profile : AdvancedSimple@L5
Format settings, BVOP : Yes
Format settings, QPel : No
Format settings, GMC : No warppoints
Format settings, Matrix : Custom
Codec ID : XVID
Codec ID/Hint : XviD
Duration : 2h 37mn
Bit rate : 1 662 Kbps
Width : 640 pixels
Height : 480 pixels
Display aspect ratio : 4/3
Frame rate : 23.976 fps
Resolution : 24 bits
Colorimetry : 4:2:0
Scan type : Progressive
Bits/(Pixel*Frame) : 0.226
Stream size : 1.83 GiB (89%)
Writing library : XviD 1.2.1 (UTC 2008-12-04)
Audio
ID : 1
Format : AC-3
Format/Info : Audio Coding 3
Codec ID : 2000
Duration : 2h 37mn
Bit rate mode : Constant
Bit rate : 192 Kbps
Channel(s) : 2 channels
Channel positions : L R
Sampling rate : 48.0 KHz
Stream size : 216 MiB (10%)
Alignment : Split accross interleaves
Interleave, duration : 42 ms (1.00 video frame)
Interleave, preload duration : 500 ms
Скриншоты
Скачать

Скачать торрент! Вечная сказка любви / Dharam Veer (Манмохан Десаи / Manmohan Desai) [1977, Индия, Мелодрама, фэнтези, DVDRip] [Полная версия] MVO (Формат АВ)

Как скачивать? · Что такое торрент? · Рейтинг и ограничения

Сайт не распространяет и не хранит электронные версии произведений, а лишь предоставляет доступ к создаваемому пользователями каталогу ссылок на торрент-файлы, которые содержат только списки хеш-сумм

[Профиль] [ЛС]
Показать сообщения:    
Ответить на тему

Текущее время: Сегодня 16:32

Часовой пояс: GMT + 4



Вы не можете начинать темы
Вы не можете отвечать на сообщения
Вы не можете редактировать свои сообщения
Вы не можете удалять свои сообщения
Вы не можете голосовать в опросах
Вы не можете прикреплять файлы к сообщениям
Вы не можете скачивать файлы