Камогава Хорумо: Боевая лига в Киото / Kamogawa horumô (Кацухиде Мотоки / Katsuhide Motoki) [2009, Япония, фэнтези, комедия, DVDRip-AVC] DVO (den904 & DeadSno)

Ответить на тему
 
Автор Сообщение

user ®

Стаж: 13 лет

Сообщений: 15071

Пост Пост: #1 от 30-Мар-2015 10:45

[Цитировать]

Камогава Хорумо: Боевая лига в Киото / Kamogawa horumô
Страна: Япония
Жанр: фэнтези, комедия
Год выпуска: 2009
Продолжительность: 01:52:06
Перевод: Любительский (двухголосый закадровый) den904 & DeadSno
Cубтитры: нет
Оригинальная аудиодорожка: нет
Режиссер: Кацухиде Мотоки / Katsuhide Motoki
В ролях: Такаюки Ямада, Тиаки Курияма, Гаку Хамада, Сэй Асина, Такуя Исида, Йошийоши Аракава, Тамиясу Чо, Рэндзи Исибаси, Мимура Такаё, Маки Окамото
Описание: Студентов-первокурсников обманным путем завлекают в развлекательный клуб, который оказывается древним культом бойцов они - маленьких демонят, битва между которыми каждый раз спасает людей от конца света...
Сэмпл: http://multi-up.com/1040851
Качество видео: DVDRip
Формат видео: MKV
Видео: AVC, 704x368, 1536 kbps, 23.976 fps
Аудио: AC3, 192 kbps, 2 ch
MediaInfo
Format: Matroska
Format version: Version 4 / Version 2
File size: 1.35 GiB
Duration: 1h 52mn
Overall bit rate: 1 730 Kbps
Encoded date: UTC 2015-03-29 13:46:50
Writing application: mkvmerge v7.7.0 ('Six Voices') 64bit built on Feb 28 2015 23:39:33
Writing library: libebml v1.3.1 + libmatroska v1.4.2
DURATION: 01:52:06.784000000
NUMBER_OF_FRAMES: 210212
NUMBER_OF_BYTES: 161442816
_STATISTICS_WRITING_APP: mkvmerge v7.7.0 ('Six Voices') 64bit built on Feb 28 2015 23:39:33
_STATISTICS_WRITING_DATE_UTC: 2015-03-29 13:46:50
_STATISTICS_TAGS: BPS DURATION NUMBER_OF_FRAMES NUMBER_OF_BYTES
Format: AVC
Format/Info: Advanced Video Codec
Format profile: Main@L5.1
Format settings, CABAC: Yes
Format settings, ReFrames: 2 frames
Codec ID: AVC
Duration: 1h 52mn
Bit rate: 1 536 Kbps
Width: 704 pixels
Height: 368 pixels
Display aspect ratio: 1.913
Frame rate mode: Constant
Frame rate: 23.976 fps
Color space: YUV
Chroma subsampling: 4:2:0
Bit depth: 8 bits
Scan type: Progressive
Bits/(Pixel*Frame): 0.247
Stream size: 1.18 GiB (87%)
Writing library: x264 core 58 svn-736bm
Encoding settings: cabac=1 / ref=1 / deblock=1:0:0 / analyse=0x1:0x131 / me=hex / subme=5 / brdo=0 / mixed_ref=0 / me_range=16 / chroma_me=1 / trellis=1 / 8x8dct=0 / cqm=0 / deadzone=21,11 / chroma_qp_offset=0 / threads=4 / nr=0 / decimate=1 / mbaff=0 / bframes=2 / b_pyramid=0 / b_adapt=1 / b_bias=0 / direct=1 / wpredb=1 / bime=0 / keyint=250 / keyint_min=25 / scenecut=40(pre) / rc=2pass / bitrate=1536 / ratetol=1.0 / rceq='blurCplx^(1-qComp)' / qcomp=0.60 / qpmin=10 / qpmax=51 / qpstep=4 / cplxblur=20.0 / qblur=0.5 / ip_ratio=1.40 / pb_ratio=1.30
Default: Yes
Forced: No
Format: AC-3
Format/Info: Audio Coding 3
Mode extension: CM (complete main)
Format settings, Endianness: Big
Codec ID: A_AC3
Duration: 1h 52mn
Bit rate mode: Constant
Bit rate: 192 Kbps
Channel(s): 2 channels
Channel positions: Front: L R
Sampling rate: 48.0 KHz
Bit depth: 16 bits
Compression mode: Lossy
Stream size: 154 MiB (11%)
Default: Yes
Forced: No
Скриншот c названием фильма Скриншоты
Скачать

Скачать торрент! Камогава Хорумо: Боевая лига в Киото / Kamogawa horumô (Кацухиде Мотоки / Katsuhide Motoki) [2009, Япония, фэнтези, комедия, DVDRip-AVC] DVO (den904 & DeadSno)

Как скачивать? · Что такое торрент? · Рейтинг и ограничения

Сайт не распространяет и не хранит электронные версии произведений, а лишь предоставляет доступ к создаваемому пользователями каталогу ссылок на торрент-файлы, которые содержат только списки хеш-сумм

[Профиль] [ЛС]
Показать сообщения:    
Ответить на тему

Текущее время: Сегодня 17:28

Часовой пояс: GMT + 4



Вы не можете начинать темы
Вы не можете отвечать на сообщения
Вы не можете редактировать свои сообщения
Вы не можете удалять свои сообщения
Вы не можете голосовать в опросах
Вы не можете прикреплять файлы к сообщениям
Вы не можете скачивать файлы