Расставание / Judaai (Радж Канвар / Raj Kanwar) [1997, Индия, Мелодрама, драма, DVDRip] MVO (Zee Tv)

Ответить на тему
 
Автор Сообщение

user ®

Стаж: 8 лет 8 месяцев

Сообщений: 20007

Пост Пост: #1 от 30-Мар-2015 10:45

[Цитировать]

Расставание / Judaai
Страна: Индия
Жанр: Мелодрама, драма
Год выпуска: 1997
Продолжительность: 02:47:20
Перевод: Профессиональный (многоголосый закадровый) Zee Tv
Cубтитры: нет
Режиссер: Радж Канвар / Raj Kanwar
В ролях: Анил Капур, Шридеви, Урмила Матондкар, Пареш Раваль, Саид Джеффри, Фарида Джалал, Джонни Левер, Упасна Сингх, Мехмуд, Омкар Капур, Шехзаад, Динеш Хингу, Анил Саксена, Пунам Дхиллон
Описание: Любовь и согласие царят в семье инженера Раджи (Анил Капур) и его молодой жены Каджал (Шридеви). Лишь чрезмерная тяга Каджал к роскоши и дорогим вещам несколько омрачают их счастье. Как смерч врывается в их жизнь богатая и эгоистичная Джханви (Урмила Матондкар), племянница босса Раджи. Поставив перед собой цель - стать женой Раджи, она, используя алчность Каджал, добивается своего. Будут ли теперь счастливы все трое, ведь Каджал получила такие желанные деньги, а Джханви - мужа...
Доп. информация: Релиз: Кинозал
Сведение звука: oktober (Спасибо!)
Сэмпл: http://multi-up.com/1041015
Качество видео: DVDRip
Формат видео: AVI
Видео: XviD build 50, 720x336 (2.14:1), 23.976 fps, 2003 kbps avg
Аудио: AC3 Dolby Digital, 48 kHz, 2/0 (L,R) ch, 192 kbps
MediaInfo
General
Complete name : F:\Rasstavanie.1997.DVDRip.XviD.oktober.avi
Format : AVI
Format/Info : Audio Video Interleave
Format profile : OpenDML
File size : 2.57 GiB
Duration : 2h 47mn
Overall bit rate : 2 203 Kbps
Writing application : VirtualDubMod 1.5.10.2 (build 2540/release)
Writing library : VirtualDubMod build 2540/release
Video
ID : 0
Format : MPEG-4 Visual
Format profile : AdvancedSimple@L5
Format settings, BVOP : Yes
Format settings, QPel : No
Format settings, GMC : No warppoints
Format settings, Matrix : Default (H.263)
Codec ID : XVID
Codec ID/Hint : XviD
Duration : 2h 47mn
Bit rate : 2 000 Kbps
Width : 720 pixels
Height : 336 pixels
Display aspect ratio : 2.2
Frame rate : 23.976 fps
Resolution : 24 bits
Colorimetry : 4:2:0
Scan type : Progressive
Bits/(Pixel*Frame) : 0.345
Stream size : 2.34 GiB (91%)
Writing library : XviD 1.2.1 (UTC 2008-12-04)
Audio
ID : 1
Format : AC-3
Format/Info : Audio Coding 3
Codec ID : 2000
Duration : 2h 47mn
Bit rate mode : Constant
Bit rate : 192 Kbps
Channel(s) : 2 channels
Channel positions : L R
Sampling rate : 48.0 KHz
Stream size : 230 MiB (9%)
Alignment : Split accross interleaves
Interleave, duration : 42 ms (1.00 video frame)
Interleave, preload duration : 500 ms
Скриншоты Сравнения
[url=http://***/forum/viewtopic.php?t=1961468]http://***/forum/viewtopic.php?t=1961468[/url] => другой перевод DVO (Элегия фильм)
Семпл мой http://multi-up.com/1041015
Семпл с раздачи Даце http://multi-up.com/1041016
Скачать

Скачать торрент!

Как скачивать? · Что такое торрент? · Рейтинг и ограничения

Сайт не распространяет и не хранит электронные версии произведений, а лишь предоставляет доступ к создаваемому пользователями каталогу ссылок на торрент-файлы, которые содержат только списки хеш-сумм

[Профиль] [ЛС]

ufaprank

Стаж: 1 год

Сообщений: 1

Пост Пост: #2 от 15-Дек-2016 00:40 (спустя 1 год 8 месяцев)

[Цитировать]

дайте скорости фильм хороший
[Профиль] [ЛС]
Показать сообщения:    
Ответить на тему

Текущее время: Сегодня 08:28

Часовой пояс: GMT + 4



Вы не можете начинать темы
Вы не можете отвечать на сообщения
Вы не можете редактировать свои сообщения
Вы не можете удалять свои сообщения
Вы не можете голосовать в опросах
Вы не можете прикреплять файлы к сообщениям
Вы не можете скачивать файлы