Большая свадьба / The Big Wedding (Джастин Закэм / Justin Zackham) [2013, США, комедия, BDRip 1080p] Dub + Original Eng + Sub Eng

Ответить на тему
 
Автор Сообщение

user ®

Стаж: 7 лет 7 месяцев

Сообщений: 20008

Пост Пост: #1 от 30-Мар-2015 01:30

[Цитировать]

Большая свадьба / The Big Wedding- Страна: США
Жанр: комедия
Год выпуска: 2013
Продолжительность: 01:29:32
Перевод: Профессиональный (дублированный)
Субтитры: английские
Оригинальная аудиодорожка: английский-Режиссер: Джастин Закэм / Justin Zackham
В ролях: Роберт Де Ниро, Дайан Китон, Кэтрин Хайгл, Сьюзен Сарандон, Бен Барнс, Аманда Сайфред, Тофер Грейс, Ана Айора, Робин Уильямс, Патриция Рэй.
Описание: Свадьба всегда являлась очень радостным и очень хлопотным событием для всех участников торжество. Но что вдвойне сложно справить это веселое торжество, если родители одного из брачующихся разведены и давно состоят в плохих отношениях. Экс-супруги Гриффин хоть уже и пятую часть века не могут даже поговорить нормально, но на свадьбу к любимому Джареду, приемному сыну, Дон и Лайла приезжают с нормальным дружеским видом. Тем более что на торжество заявится и родная ультраконсервативная мать Джареда, которая решит почтить свадьбу, пролетев полмира. Однако как бы родственники не договаривались, все скелеты в шкафу скрыть не удастся. Большая свадьба обернется тем еще конфузами и смешными неприятностями, решать которые придется именно Джареду и его красавице-невесте.-Sample
Качество: BDRip 1080p | Контейнер: MKV | Рип: HDWing
Видео: 1920x800 (2.40:1), 23.976 fps, x264@L4.1 ~11000 kbps
Аудио 1: Russian 48 kHz, DTS, 3/2 (L,C,R,l,r) + LFE ch, 768.00 kbps avg | BD RUS
Аудио 2: English 48 kHz, DTS, 3/2 (L,C,R,l,r) + LFE ch, 1509.00 kbps avg | Original
Субтитры: SRT

Инфо
Format : Matroska
File size : 8.30 GiB
Duration : 1h 29mn
Overall bit rate : 13.3 Mbps
Movie name : The Big Wedding 2013
Encoded date : UTC 2015-03-28 11:06:59
Writing application : mkvmerge v6.6.0 ('The Edge Of The In Between') built on Dec 1 2013 17:55:00
Writing library : libebml v1.3.0 + libmatroska v1.4.1
Video
ID : 1
Format : AVC
Format/Info : Advanced Video Codec
Format profile : High@L4.1
Format settings, CABAC : Yes
Format settings, ReFrames : 5 frames
Codec ID : V_MPEG4/ISO/AVC
Duration : 1h 29mn
Bit rate : 11.0 Mbps
Width : 1 920 pixels
Height : 800 pixels
Display aspect ratio : 2.40:1
Frame rate : 23.976 fps
Color space : YUV
Chroma subsampling : 4:2:0
Bit depth : 8 bits
Scan type : Progressive
Bits/(Pixel*Frame) : 0.299
Stream size : 6.72 GiB (81%)
Title : BDRip 1080p HDWinG
Writing library : x264 core 133 r2334 a3ac64b
Encoding settings : cabac=1 / ref=5 / deblock=1:-3:-3 / analyse=0x3:0x113 / me=tesa / subme=11 / psy=1 / psy_rd=1.00:0.00 / mixed_ref=1 / me_range=24 / chroma_me=1 / trellis=2 / 8x8dct=1 / cqm=0 / deadzone=21,11 / fast_pskip=0 / chroma_qp_offset=-2 / threads=18 / lookahead_threads=3 / sliced_threads=0 / nr=0 / decimate=0 / interlaced=0 / bluray_compat=0 / constrained_intra=0 / bframes=8 / b_pyramid=2 / b_adapt=2 / b_bias=0 / direct=3 / weightb=1 / open_gop=0 / weightp=2 / keyint=240 / keyint_min=24 / scenecut=40 / intra_refresh=0 / rc_lookahead=240 / rc=2pass / mbtree=1 / bitrate=11000 / ratetol=1.0 / qcomp=0.70 / qpmin=0 / qpmax=69 / qpstep=4 / cplxblur=20.0 / qblur=0.5 / ip_ratio=1.20 / aq=1:0.75
Language : English
Audio #1
ID : 2
Format : DTS
Format/Info : Digital Theater Systems
Codec ID : A_DTS
Duration : 1h 29mn
Bit rate mode : Constant
Bit rate : 755 Kbps
Channel(s) : 6 channels
Channel positions : Front: L C R, Side: L R, LFE
Sampling rate : 48.0 KHz
Bit depth : 16 bits
Stream size : 483 MiB (6%)
Title : BD RUS
Language : Russian
Audio #2
ID : 3
Format : DTS
Format/Info : Digital Theater Systems
Codec ID : A_DTS
Duration : 1h 29mn
Bit rate mode : Constant
Bit rate : 1 510 Kbps
Channel(s) : 6 channels
Channel positions : Front: L C R, Side: L R, LFE
Sampling rate : 48.0 KHz
Bit depth : 16 bits
Stream size : 967 MiB (11%)
Title : Original
Language : English
Text
ID : 4
Format : UTF-8
Codec ID : S_TEXT/UTF8
Codec ID/Info : UTF-8 Plain Text
Title : Full
Language : English
Скриншоты
Скачать

Скачать торрент!

Как скачивать? · Что такое торрент? · Рейтинг и ограничения

Сайт не распространяет и не хранит электронные версии произведений, а лишь предоставляет доступ к создаваемому пользователями каталогу ссылок на торрент-файлы, которые содержат только списки хеш-сумм

[Профиль] [ЛС]
Показать сообщения:    
Ответить на тему

Текущее время: Сегодня 08:28

Часовой пояс: GMT + 4



Вы не можете начинать темы
Вы не можете отвечать на сообщения
Вы не можете редактировать свои сообщения
Вы не можете удалять свои сообщения
Вы не можете голосовать в опросах
Вы не можете прикреплять файлы к сообщениям
Вы не можете скачивать файлы