Внеземное эхо / Earch to Echo (Дэйв Грин / Dave Green) [2014, США, фантастика, приключения, семейный, BDRip 720p] MVO + Sub Eng + Original Eng

Ответить на тему
 
Автор Сообщение

user ®

Стаж: 7 лет 7 месяцев

Сообщений: 20008

Пост Пост: #1 от 30-Мар-2015 01:30

[Цитировать]

Внеземное эхо / Earch to Echo
«Никто не поверит нашей истории»
Страна: США
Студия: Panay Films, Walt Disney Studios
Жанр: фантастика, приключения, семейный
Год выпуска: 2014
Продолжительность: 01:35:15-Перевод: Любительский (многоголосый закадровый)
Cубтитры: английские (вшитые / оключаемые)
Оригинальная аудиодорожка: английский-Режиссер: Дэйв Грин / Dave Green-В ролях: Тео Хальм, Астро, Риз Хартвиг, Элла Валестедт, Джейсон Грей-Стенфорд, Элджи Смит, Кассиус Клэй, Соня Лесли, Керри О’Мэлли, Вирджиния Луиз Смит-Описание: До этого времени они были просто хорошистами в школе и тремя лучшими друзьями - Таск, Манч и Алекс. И тут их телефоны начали получать непонятное сообщение. Ребята показали их родителям и полиции, но те лишь махнули руками. Хотя парни уверены, что это сообщение что то значит и расшифровав его отправились на велосипедах к его источнику. Так они обнаружили внеземное создание и назвали его - Эхо. Но за этим созданием охотятся и другие люди и теперь судьба всего человечества в руках у этих юных ребят.- -Тип релиза: BDRip 720p
Контейнер: MKV-Видео: 7 409 Kbps, 1280*720 (16:9), at 23.976 fps, AVC
Аудио 1 Russian: 448 Kbps, 48.0 KHz, 16 bits, 6 channels, AC-3
Аудио 2 English: 1 510 Kbps, 48.0 KHz, 24 bits, 6 channels, DTS
Формат субтитров: softsub (SRT)
-MediaInfo
General
Unique ID : 179794465237416896825623191107535054146 (0x874327899D5A8C9087BF78BEF9132542)
Complete name : D:\Earth.to.Echo.2014.720p.BluRay.Rus.Eng.x264.mkv
Format : Matroska
Format version : Version 2
File size : 6.09 GiB
Duration : 1h 31mn
Overall bit rate : 9 556 Kbps
Encoded date : UTC 2014-10-19 10:51:38
Writing application : mkvmerge v3.3.0 ('Language') built on Mar 24 2010 14:59:24
Writing library : libebml v0.8.0 + libmatroska v0.9.0
DURATION : 01:30:34.220000000
NUMBER_OF_FRAMES : 2025
NUMBER_OF_BYTES : 63314
_STATISTICS_WRITING_APP : mkvmerge v7.2.0 ('On Every Street') 64bit built on Sep 13 2014 15:52:10
_STATISTICS_WRITING_DATE_UTC : 2014-10-14 08:50:07
_STATISTICS_TAGS : BPS DURATION NUMBER_OF_FRAMES NUMBER_OF_BYTES
Video
ID : 1
Format : AVC
Format/Info : Advanced Video Codec
Format profile : High@L4.1
Format settings, CABAC : Yes
Format settings, ReFrames : 9 frames
Codec ID : V_MPEG4/ISO/AVC
Duration : 1h 31mn
Bit rate : 7 409 Kbps
Width : 1 280 pixels
Height : 720 pixels
Display aspect ratio : 16:9
Frame rate mode : Constant
Frame rate : 23.976 fps
Color space : YUV
Chroma subsampling : 4:2:0
Bit depth : 8 bits
Scan type : Progressive
Bits/(Pixel*Frame) : 0.335
Stream size : 4.72 GiB (78%)
Title : Earth to Echo (2014)
Writing library : x264 core 142 r2479kMod dd79a61
Encoding settings : cabac=1 / ref=9 / deblock=1:-3:-3 / analyse=0x3:0x133 / me=umh / subme=10 / psy=1 / fade_compensate=0.00 / psy_rd=1.05:0.00 / mixed_ref=1 / me_range=32 / chroma_me=1 / trellis=2 / 8x8dct=1 / cqm=0 / deadzone=21,11 / fast_pskip=0 / chroma_qp_offset=-2 / threads=6 / lookahead_threads=1 / sliced_threads=0 / nr=0 / decimate=0 / interlaced=0 / bluray_compat=0 / constrained_intra=0 / fgo=0 / bframes=8 / b_pyramid=2 / b_adapt=2 / b_bias=0 / direct=3 / weightb=1 / open_gop=0 / weightp=2 / keyint=250 / keyint_min=23 / scenecut=40 / intra_refresh=0 / rc_lookahead=60 / rc=crf / mbtree=0 / crf=17.0000 / qcomp=0.70 / qpmin=0 / qpmax=69 / qpstep=4 / vbv_maxrate=62500 / vbv_bufsize=78125 / crf_max=0.0 / nal_hrd=none / filler=0 / ip_ratio=1.20 / pb_ratio=1.10 / aq=1:0.70 / zones=25,137,crf=15/206,212,crf=15/394,412,crf=15/9008,9170,crf=14/12556,12571,crf=14/22897,22932,crf=14/43761,43894,crf=14/46383,46408,crf=14/54486,54492,crf=14/63901,63937,crf=14/63984,63994,crf=14/64050,64074,crf=14/65910,66006,crf=14/68418,68493,crf=14/78780,79266,crf=14/81661,81765,crf=14/82493,82700,crf=14/83969,84076,crf=14/84310,84337,crf=14/90965,91255,crf=14/92488,92504,crf=14/93373,93375,crf=14/93381,93383,crf=14/93387,93437,crf=14/95038,95093,crf=14/96198,96253,crf=14/96502,96535,crf=14/104051,104538,crf=14/105718,105756,crf=14/108886,108967,crf=14/110142,110255,crf=14
Language : English
Default : No
Forced : No
DURATION : 01:31:15.470000000
NUMBER_OF_FRAMES : 131280
NUMBER_OF_BYTES : 5199780247
_STATISTICS_WRITING_APP : mkvmerge v7.2.0 ('On Every Street') 64bit built on Sep 13 2014 15:52:10
_STATISTICS_WRITING_DATE_UTC : 2014-10-14 08:50:07
_STATISTICS_TAGS : BPS DURATION NUMBER_OF_FRAMES NUMBER_OF_BYTES
Audio #1
ID : 2
Format : AC-3
Format/Info : Audio Coding 3
Mode extension : CM (complete main)
Format settings, Endianness : Big
Codec ID : A_AC3
Duration : 1h 31mn
Bit rate mode : Constant
Bit rate : 448 Kbps
Channel(s) : 6 channels
Channel positions : Front: L C R, Side: L R, LFE
Sampling rate : 48.0 KHz
Bit depth : 16 bits
Compression mode : Lossy
Stream size : 292 MiB (5%)
Title : AC3 5.1 @ 448 kbps - MVO, Сладкая парочка
Language : Russian
Default : Yes
Forced : No
Audio #2
ID : 3
Format : DTS
Format/Info : Digital Theater Systems
Codec ID : A_DTS
Duration : 1h 31mn
Bit rate mode : Constant
Bit rate : 1 510 Kbps
Channel(s) : 6 channels
Channel positions : Front: L C R, Side: L R, LFE
Sampling rate : 48.0 KHz
Bit depth : 24 bits
Compression mode : Lossy
Delay relative to video : 11ms
Stream size : 985 MiB (16%)
Title : DTS 5.1 @ 1509 kbps
Language : English
Default : No
Forced : No
Text #1
ID : 4
Format : UTF-8
Codec ID : S_TEXT/UTF8
Codec ID/Info : UTF-8 Plain Text
Language : English
Default : No
Forced : No
Text #2
ID : 5
Format : UTF-8
Codec ID : S_TEXT/UTF8
Codec ID/Info : UTF-8 Plain Text
Title : English-SDH
Language : English
Default : No
Forced : No
Menu
00:00:00.000 : en:Chapter 1
00:04:08.373 : en:Chapter 2
00:08:00.939 : en:Chapter 3
00:11:48.207 : en:Chapter 4
00:15:56.497 : en:Chapter 5
00:18:04.333 : en:Chapter 6
00:20:37.903 : en:Chapter 7
00:24:18.582 : en:Chapter 8
00:28:30.500 : en:Chapter 9
00:32:37.831 : en:Chapter 10
00:36:23.348 : en:Chapter 11
00:39:49.679 : en:Chapter 12
00:43:39.200 : en:Chapter 13
00:48:12.306 : en:Chapter 14
00:51:53.777 : en:Chapter 15
00:55:25.447 : en:Chapter 16
00:58:13.407 : en:Chapter 17
01:01:49.331 : en:Chapter 18
01:05:21.501 : en:Chapter 19
01:08:52.295 : en:Chapter 20
01:11:55.645 : en:Chapter 21
01:15:01.706 : en:Chapter 22
01:19:54.373 : en:Chapter 23
01:23:02.227 : en:Chapter 24
Скриншоты -
Скачать

Скачать торрент!

Как скачивать? · Что такое торрент? · Рейтинг и ограничения

Сайт не распространяет и не хранит электронные версии произведений, а лишь предоставляет доступ к создаваемому пользователями каталогу ссылок на торрент-файлы, которые содержат только списки хеш-сумм

[Профиль] [ЛС]
Показать сообщения:    
Ответить на тему

Текущее время: Сегодня 22:36

Часовой пояс: GMT + 4



Вы не можете начинать темы
Вы не можете отвечать на сообщения
Вы не можете редактировать свои сообщения
Вы не можете удалять свои сообщения
Вы не можете голосовать в опросах
Вы не можете прикреплять файлы к сообщениям
Вы не можете скачивать файлы