Спасая лицо / Saving Face (Элис Ву / Alice Wu) [2004, США, мелодрама, WEB-DL 720p] MVO (СТС) + VO + Original Eng + Sub Rus, Eng

Ответить на тему
 
Автор Сообщение

user ®

Стаж: 7 лет 7 месяцев

Сообщений: 20008

Пост Пост: #1 от 30-Мар-2015 01:30

[Цитировать]

Спасая лицо / Saving Face
Страна: США
Жанр: мелодрама
Год выпуска: 2004
Продолжительность: 01:37:15
Перевод 1: Профессиональный (многоголосый закадровый) СТС
Перевод 2: Одноголосый закадровый
Cубтитры: русские, английские
Оригинальная аудиодорожка: английский
Режиссер: Элис Ву / Alice Wu
В ролях: Мишель Крусик, Джоан Чэнь, Линн Чен, Джин Ванг, Гуанг Лан Кох, Джессика Хехт, Ато Эссонда, Дэвид Ших, Брайан Янг, Натанель Генг
Описание: Китаянка Вильгельмина Панг живет на Манхэттене и пытается сделать медицинскую карьеру. Ее мать не знает, что Вильгельмина — латентная лесбиянка, и пытается устроить судьбу дочери, подыскав ей выгодного жениха. Но даже встречаясь с прекрасными мужчинами, девушка панически боится обязательств, которые, как ей кажется, разрушат ее карьеру и налаженную, уютную жизнь…
Доп. информация: ПРИСУТСТВУЕТ АНГЛИЙСКИЙ ХАРДСАБ НА КИТАЙСКУЮ РЕЧЬ
Сэмпл: https://yadi.sk/i/U7aGIcAKfanJq
Тип релиза: WEB-DL 720p (источник видео: Saving.Face.2004.720p.WEB-DL.DD5.1.h.264-fiend.mkv)
Контейнер: MKV
Видео: AVC, 1280x718, 16:9, 3955 kbps, 23.976 fps
Аудио 1: RUS, AC3, 2.0, 48 kHz, 16 bit, 192 kbps (MVO)
Аудио 2: RUS, AC3, 2.0, 48 kHz, 16 bit, 192 kbps (VO)
Аудио 3: ENG, AC3, 5.1, 48 kHz, 16 bit, 384 kbps
Формат субтитров: softsub (SRT)
MediaInfo
General
Unique ID : 242301943214011106846954518325589815685 (0xB649A8242B7AA275BB17A5E11619B185)
Complete name : Спасая лицо [2004] 720p.mkv
Format : Matroska
Format version : Version 4 / Version 2
File size : 3.27 GiB
Duration : 1h 37mn
Overall bit rate : 4 819 Kbps
Encoded date : UTC 2015-03-28 19:39:55
Writing application : mkvmerge v7.8.0 ('River Man') 64bit built on Mar 27 2015 16:31:37
Writing library : libebml v1.3.1 + libmatroska v1.4.2
DURATION : 01:37:15.744000000
NUMBER_OF_FRAMES : 182367
NUMBER_OF_BYTES : 140057856
_STATISTICS_WRITING_APP : mkvmerge v7.8.0 ('River Man') 64bit built on Mar 27 2015 16:31:37
_STATISTICS_WRITING_DATE_UTC : 2015-03-28 19:39:55
_STATISTICS_TAGS : BPS DURATION NUMBER_OF_FRAMES NUMBER_OF_BYTES
Video
ID : 1
Format : AVC
Format/Info : Advanced Video Codec
Format profile : High@L3.1
Format settings, CABAC : No
Format settings, ReFrames : 2 frames
Format settings, GOP : N=1
Codec ID : V_MPEG4/ISO/AVC
Duration : 1h 37mn
Bit rate : 3 955 Kbps
Width : 1 280 pixels
Height : 718 pixels
Display aspect ratio : 16:9
Frame rate mode : Constant
Frame rate : 23.976 fps
Color space : YUV
Chroma subsampling : 4:2:0
Bit depth : 8 bits
Scan type : Progressive
Bits/(Pixel*Frame) : 0.180
Stream size : 2.69 GiB (82%)
Language : English
Default : Yes
Forced : No
Color primaries : BT.709
Transfer characteristics : BT.709
Matrix coefficients : BT.709
Audio #1
ID : 2
Format : AC-3
Format/Info : Audio Coding 3
Mode extension : CM (complete main)
Format settings, Endianness : Big
Codec ID : A_AC3
Duration : 1h 37mn
Bit rate mode : Constant
Bit rate : 192 Kbps
Channel(s) : 2 channels
Channel positions : Front: L R
Sampling rate : 48.0 KHz
Bit depth : 16 bits
Compression mode : Lossy
Stream size : 134 MiB (4%)
Title : MVO (СТС)
Language : Russian
Default : Yes
Forced : No
Audio #2
ID : 3
Format : AC-3
Format/Info : Audio Coding 3
Mode extension : CM (complete main)
Format settings, Endianness : Big
Codec ID : A_AC3
Duration : 1h 37mn
Bit rate mode : Constant
Bit rate : 192 Kbps
Channel(s) : 2 channels
Channel positions : Front: L R
Sampling rate : 48.0 KHz
Bit depth : 16 bits
Compression mode : Lossy
Stream size : 134 MiB (4%)
Title : VO
Language : Russian
Default : No
Forced : No
Audio #3
ID : 4
Format : AC-3
Format/Info : Audio Coding 3
Mode extension : CM (complete main)
Format settings, Endianness : Big
Codec ID : A_AC3
Duration : 1h 37mn
Bit rate mode : Constant
Bit rate : 384 Kbps
Channel(s) : 6 channels
Channel positions : Front: L C R, Side: L R, LFE
Sampling rate : 48.0 KHz
Bit depth : 16 bits
Compression mode : Lossy
Stream size : 267 MiB (8%)
Title : ENG
Language : English
Default : No
Forced : No
Text #1
ID : 5
Format : UTF-8
Codec ID : S_TEXT/UTF8
Codec ID/Info : UTF-8 Plain Text
Language : Russian
Default : No
Forced : No
Text #2
ID : 6
Format : UTF-8
Codec ID : S_TEXT/UTF8
Codec ID/Info : UTF-8 Plain Text
Language : English
Default : No
Forced : No
Menu
00:00:00.000 : en:Start
00:12:21.000 : en:Vending-Machine Meeting
00:14:56.000 : en:The Family Shame
00:19:52.000 : en:First Date in Three Weeks
00:28:32.000 : en:Trying to Fall
00:36:34.000 : en:Definitely Maybe
00:41:59.000 : en:Hunt for a Husband
00:51:52.000 : en:Meeting Mother
01:03:12.000 : en:The Grandma Scare
01:09:02.000 : en:Not a Flesh Wound
01:15:06.000 : en:For Father's Honor
01:23:49.000 : en:Lost... and Found
Скриншоты
Скачать

Скачать торрент!

Как скачивать? · Что такое торрент? · Рейтинг и ограничения

Сайт не распространяет и не хранит электронные версии произведений, а лишь предоставляет доступ к создаваемому пользователями каталогу ссылок на торрент-файлы, которые содержат только списки хеш-сумм

[Профиль] [ЛС]
Показать сообщения:    
Ответить на тему

Текущее время: Сегодня 09:55

Часовой пояс: GMT + 4



Вы не можете начинать темы
Вы не можете отвечать на сообщения
Вы не можете редактировать свои сообщения
Вы не можете удалять свои сообщения
Вы не можете голосовать в опросах
Вы не можете прикреплять файлы к сообщениям
Вы не можете скачивать файлы