Граница пустоты / Смертельный кадр / Gekijô-ban: Zero (Мари Асато / Mari Asato) [2014, Япония, мистика, детектив, HDRip] DVO (DeadSno & den904)

Ответить на тему
 
Автор Сообщение

user ®

Стаж: 13 лет

Сообщений: 15071

Пост Пост: #1 от 29-Мар-2015 16:12

[Цитировать]

Граница пустоты / Смертельный кадр / Gekijô-ban: Zero- -Страна: Япония
Жанр: мистика, детектив
Год выпуска: 2014
Продолжительность: 01:45:01-Перевод: Любительский (двухголосый закадровый) [DeadSno & den904]-Cубтитры: нет
Оригинальная аудиодорожка: нет
Режиссер: Мари Асато / Mari Asato
В ролях: Кодай Асака, Фудзико Кодзима, Джан Михо, Карен Мияма, Аои Морикава, Норико Накагоши, Аями Накадзё, Юри Накамура, Касуми Яматани...
Описание: bAя (Накадзё Аями) учится в школе для девочек, расположенной в горной деревне, и живет в школьном общежитии. Однажды, во сне она видит свою смерть. Проснувшись, Ая запирается в комнате и отказывается выходить из нее.
В это же время, в общежитии происходят странные вещи: появляется призрак, пропадают девушки, причем, каждая без вести пропавшая, незадолго до исчезновения видела фотографию девушки похожей на Ая.
Мучи (Морикава Аой) живет в том же общежитии, что и Ая. Подруга Мучи, Казуми (Казуми Ямая), исчезает прямо у нее на глазах. Мучи пытается поговорить с Ая, но та не пускает ее в комнату. Вскоре находят тело Казуми...
Доп. информация: Экранизация одноименной серии хоррор-игр. Данный фильм является приквелом к самой первой игре.
Релиз от - &
Сэмпл: http://multi-up.com/1040902
Качество видео: HDRip
Формат видео: AVI
Видео: MPEG-4 Visual at 1793 Кбит/сек; 720 x 400 (1.800) at 23.976 fps
Аудио: AC-3 at 192 Кбит/сек; 2 канала, 48,0 КГц
Автор -
MediaInfo
Общее
Полное имя : D:\Фильмы\Азиатские\Смертельный кадр\Boundary of Emptiness.2014.HDRip.XviD.1400MB. rip by [Assassin's Creed].avi
Формат : AVI
Формат/Информация : Audio Video Interleave
Размер файла : 1,46 Гбайт
Продолжительность : 1 ч. 45 м.
Общий поток : 1994 Кбит/сек
Программа кодирования : VirtualDubMod 1.5.10.3 | www.virtualdub-fr.org || (build 2550/release)
Библиотека кодирования : VirtualDubMod build 2550/release
Видео
Идентификатор : 0
Формат : MPEG-4 Visual
Профиль формата : Advanced Simple@L5
Параметр BVOP формата : 1
Параметр QPel формата : Нет
Параметр GMC формата : Без точки перехода
Параметр матрицы формата : Default (MPEG)
Идентификатор кодека : XVID
Идентификатор кодека/Подсказка : XviD
Продолжительность : 1 ч. 45 м.
Битрейт : 1793 Кбит/сек
Ширина : 720 пикселей
Высота : 400 пикселей
Соотношение сторон : 16:9
Частота кадров : 23,976 кадра/сек
Цветовое пространство : YUV
Субдискретизация насыщенности : 4:2:0
Битовая глубина : 8 бит
Тип развёртки : Прогрессивная
Метод сжатия : С потерями
Бит/(Пиксели*Кадры) : 0.260
Размер потока : 1,32 Гбайт (90%)
Библиотека кодирования : XviD 1.2.1 (UTC 2008-12-04)
Аудио
Идентификатор : 1
Формат : AC-3
Формат/Информация : Audio Coding 3
Расширение режима : CM (complete main)
Параметр Endianness формата : Big
Идентификатор кодека : 2000
Продолжительность : 1 ч. 45 м.
Вид битрейта : Постоянный
Битрейт : 192 Кбит/сек
Каналы : 2 канала
Расположение каналов : Front: L R
Частота : 48,0 КГц
Битовая глубина : 16 бит
Метод сжатия : С потерями
Размер потока : 144 Мбайт (10%)
Выравнивание : Разделение по промежуткам
Продолжительность промежутка : 42 мс. (1,00 видеокадр)
Время предзагрузки промежутка : 500 мс
Скриншот c названием фильма Скриншоты
Скачать

Скачать торрент! Граница пустоты / Смертельный кадр / Gekijô-ban: Zero (Мари Асато / Mari Asato) [2014, Япония, мистика, детектив, HDRip] DVO (DeadSno & den904)

Как скачивать? · Что такое торрент? · Рейтинг и ограничения

Сайт не распространяет и не хранит электронные версии произведений, а лишь предоставляет доступ к создаваемому пользователями каталогу ссылок на торрент-файлы, которые содержат только списки хеш-сумм

[Профиль] [ЛС]
Показать сообщения:    
Ответить на тему

Текущее время: Сегодня 18:31

Часовой пояс: GMT + 4



Вы не можете начинать темы
Вы не можете отвечать на сообщения
Вы не можете редактировать свои сообщения
Вы не можете удалять свои сообщения
Вы не можете голосовать в опросах
Вы не можете прикреплять файлы к сообщениям
Вы не можете скачивать файлы