Граница пустоты / Смертельный кадр / Gekijô-ban: Zero (Мари Асато / Mari Asato) [2014, Япония, мистика, детектив, HDRip] DVO (DeadSno & den904)

Ответить на тему
 
Автор Сообщение

user ®

Стаж: 13 лет

Сообщений: 15071

Пост Пост: #1 от 29-Мар-2015 16:12

[Цитировать]

Граница пустоты / Смертельный кадр / Gekijô-ban: Zero- -Страна: Япония
Жанр: мистика, детектив
Год выпуска: 2014
Продолжительность: 01:45:01-Перевод: Любительский (двухголосый закадровый) [DeadSno & den904]-Cубтитры: нет
Оригинальная аудиодорожка: нет
Режиссер: Мари Асато / Mari Asato
В ролях: Кодай Асака, Фудзико Кодзима, Джан Михо, Карен Мияма, Аои Морикава, Норико Накагоши, Аями Накадзё, Юри Накамура, Касуми Яматани...
Описание: bAя (Накадзё Аями) учится в школе для девочек, расположенной в горной деревне, и живет в школьном общежитии. Однажды, во сне она видит свою смерть. Проснувшись, Ая запирается в комнате и отказывается выходить из нее.
В это же время, в общежитии происходят странные вещи: появляется призрак, пропадают девушки, причем, каждая без вести пропавшая, незадолго до исчезновения видела фотографию девушки похожей на Ая.
Мучи (Морикава Аой) живет в том же общежитии, что и Ая. Подруга Мучи, Казуми (Казуми Ямая), исчезает прямо у нее на глазах. Мучи пытается поговорить с Ая, но та не пускает ее в комнату. Вскоре находят тело Казуми...
Доп. информация: Экранизация одноименной серии хоррор-игр. Данный фильм является приквелом к самой первой игре.
Релиз от - &
Сэмпл: http://multi-up.com/1040907
Качество видео: HDRip
Формат видео: AVI
Видео: MPEG-4 Visual at 860 Кбит/сек; 672 x 368 (1.826) at 23.976 fps
Аудио: MPEG Audio at 128 Кбит/сек; 2 канала, 48,0 КГц
Автор -
MediaInfo
Общее
Полное имя : D:\Фильмы\Азиатские\Смертельный кадр\Boundary of Emptiness.2014.HDRip.XviD.745MB. rip by [Assassin's Creed].avi
Формат : AVI
Формат/Информация : Audio Video Interleave
Размер файла : 749 Мбайт
Продолжительность : 1 ч. 45 м.
Общий поток : 998 Кбит/сек
Программа кодирования : VirtualDubMod 1.5.10.3 | www.virtualdub-fr.org || (build 2550/release)
Библиотека кодирования : VirtualDubMod build 2550/release
Видео
Идентификатор : 0
Формат : MPEG-4 Visual
Профиль формата : Advanced Simple@L5
Параметр BVOP формата : 1
Параметр QPel формата : Нет
Параметр GMC формата : Без точки перехода
Параметр матрицы формата : Default (MPEG)
Идентификатор кодека : XVID
Идентификатор кодека/Подсказка : XviD
Продолжительность : 1 ч. 45 м.
Битрейт : 860 Кбит/сек
Ширина : 672 пикселя
Высота : 368 пикселей
Соотношение сторон : 1,85:1
Частота кадров : 23,976 кадра/сек
Цветовое пространство : YUV
Субдискретизация насыщенности : 4:2:0
Битовая глубина : 8 бит
Тип развёртки : Прогрессивная
Метод сжатия : С потерями
Бит/(Пиксели*Кадры) : 0.145
Размер потока : 646 Мбайт (86%)
Библиотека кодирования : XviD 1.2.1 (UTC 2008-12-04)
Аудио
Идентификатор : 1
Формат : MPEG Audio
Версия формата : Version 1
Профиль формата : Layer 3
Идентификатор кодека : 55
Идентификатор кодека/Подсказка : MP3
Продолжительность : 1 ч. 45 м.
Вид битрейта : Постоянный
Битрейт : 128 Кбит/сек
Каналы : 2 канала
Частота : 48,0 КГц
Метод сжатия : С потерями
Размер потока : 96,1 Мбайт (13%)
Выравнивание : Соединение по промежуткам
Продолжительность промежутка : 42 мс. (1,00 видеокадр)
Время предзагрузки промежутка : 504 мс.
Библиотека кодирования : LAME3.99r
Настройки программы : -m s -V 4 -q 2 -lowpass 17 -b 128
Скриншот c названием фильма Скриншоты
Скачать

Скачать торрент! Граница пустоты / Смертельный кадр / Gekijô-ban: Zero (Мари Асато / Mari Asato) [2014, Япония, мистика, детектив, HDRip] DVO (DeadSno & den904)

Как скачивать? · Что такое торрент? · Рейтинг и ограничения

Сайт не распространяет и не хранит электронные версии произведений, а лишь предоставляет доступ к создаваемому пользователями каталогу ссылок на торрент-файлы, которые содержат только списки хеш-сумм

[Профиль] [ЛС]
Показать сообщения:    
Ответить на тему

Текущее время: Сегодня 20:32

Часовой пояс: GMT + 4



Вы не можете начинать темы
Вы не можете отвечать на сообщения
Вы не можете редактировать свои сообщения
Вы не можете удалять свои сообщения
Вы не можете голосовать в опросах
Вы не можете прикреплять файлы к сообщениям
Вы не можете скачивать файлы