Малышка / Бэйби / Baby (Нирадж Пандеу / Neeraj Pandey) [2015, Индия, Боевик, триллер, криминал, детектив, DVDRip-AVC] DVO + Sub Rus

Ответить на тему
 
Автор Сообщение

user ®

Стаж: 12 лет

Сообщений: 15092

Пост Пост: #1 от 29-Мар-2015 06:54

[Цитировать]

Малышка / Baby- Страна: Индия
Жанр: Боевик, триллер, криминал, детектив
Год выпуска: 2015
Продолжительность: 02:39:52-Перевод: Любительский (двухголосый закадровый) - DeadSno & den904
Cубтитры: русские (на песни)--Режиссер: Нирадж Пандеу / Neeraj Pandey-В ролях: Акшай Кумар, Таапси Панну, Анупам Кхер, Захари Соффин, Рана Даггубати, Дэнни Дензонгпа, Кэй Кэй Менон, Рашид Наз, Сушант Сингх, Каран Вахи--Описание: Секретная организация «Малышка» была создана в 2011 году из-за серий терактов, совершённых в Мумбаи 26 ноября 2008 года. Спец.группа включала в себя 12 высокопрофессиональных и обученных бойцов против терроризма. За 4 года существования организации, отряд предотвратил 24 крупных взрыва, поймал 13 самых разыскиваемых террористов и 8 боевиков. Основная сила отряда была направлена на подавление исламистских террористических организаций, таких как Лашкаре-Тайба и Индийские Моджахеды. Данный фильм повествует о последней секретной операции направленных против этих групп.-- --Релиз-группа:
Озвучка: DeadSno & den904
Озвучка по субтитрам: Honey&Haseena
ПЕРЕВЕДЕНО И ОЗВУЧЕНО ПО СПЕЦИАЛЬНОМУ ЗАКАЗУ: КОНСТАНТИНА ПРОХОРОВА--Качество видео: DVDRip
Формат видео: MKV-Видео: 720х304 (2.35:1), 23.976 fps, AVC, ~1052 kbps avg, 0.20 bit/pixel
Аудио: 48 kHz, AC3, 2 ch, ~192 kbps-- -
-
MI
Format : Matroska
Format version : Version 4 / Version 2
File size : 1.39 GiB
Duration : 2h 39mn
Overall bit rate : 1 245 Kbps
Encoded date : UTC 2015-03-28 16:51:38
Writing application : mkvmerge v7.2.0 ('On Every Street') 64bit built on Sep 13 2014 15:52:10
Writing library : libebml v1.3.0 + libmatroska v1.4.1
DURATION : 02:39:51.648000000
NUMBER_OF_FRAMES : 299739
NUMBER_OF_BYTES : 230199552
_STATISTICS_WRITING_APP : mkvmerge v7.2.0 ('On Every Street') 64bit built on Sep 13 2014 15:52:10
_STATISTICS_WRITING_DATE_UTC : 2015-03-28 16:51:38
_STATISTICS_TAGS : BPS DURATION NUMBER_OF_FRAMES NUMBER_OF_BYTES
Video
ID : 1
Format : AVC
Format/Info : Advanced Video Codec
Format profile : High@L4.1
Format settings, CABAC : Yes
Format settings, ReFrames : 5 frames
Codec ID : V_MPEG4/ISO/AVC
Duration : 2h 39mn
Bit rate : 1 052 Kbps
Width : 720 pixels
Height : 304 pixels
Display aspect ratio : 2.35:1
Frame rate mode : Constant
Frame rate : 23.976 fps
Color space : YUV
Chroma subsampling : 4:2:0
Bit depth : 8 bits
Scan type : Progressive
Bits/(Pixel*Frame) : 0.200
Stream size : 1.15 GiB (83%)
Writing library : x264 core 142 r2431 ac76440
Encoding settings : cabac=1 / ref=5 / deblock=1:0:0 / analyse=0x3:0x133 / me=umh / subme=8 / psy=1 / psy_rd=1.00:0.15 / mixed_ref=1 / me_range=16 / chroma_me=1 / trellis=1 / 8x8dct=1 / cqm=0 / deadzone=21,11 / fast_pskip=1 / chroma_qp_offset=-3 / threads=12 / lookahead_threads=2 / sliced_threads=0 / nr=0 / decimate=1 / interlaced=0 / bluray_compat=0 / constrained_intra=0 / bframes=3 / b_pyramid=2 / b_adapt=2 / b_bias=0 / direct=3 / weightb=1 / open_gop=0 / weightp=2 / keyint=230 / keyint_min=23 / scenecut=40 / intra_refresh=0 / rc_lookahead=40 / rc=2pass / mbtree=1 / bitrate=1052 / ratetol=1.0 / qcomp=0.60 / qpmin=10 / qpmax=69 / qpstep=4 / cplxblur=20.0 / qblur=0.5 / ip_ratio=1.40 / aq=1:1.00
Language : English
Default : Yes
Forced : No
Color primaries : Generic film
Audio
ID : 3
Format : AC-3
Format/Info : Audio Coding 3
Mode extension : CM (complete main)
Format settings, Endianness : Big
Codec ID : A_AC3
Duration : 2h 39mn
Bit rate mode : Constant
Bit rate : 192 Kbps
Channel(s) : 2 channels
Channel positions : Front: L R
Sampling rate : 48.0 KHz
Bit depth : 16 bits
Compression mode : Lossy
Stream size : 220 MiB (15%)
Default : Yes
Forced : No
Text
ID : 2
Format : UTF-8
Codec ID : S_TEXT/UTF8
Codec ID/Info : UTF-8 Plain Text
Default : Yes
Forced : No

-
Скриншот c названием фильма
-
Скриншоты -
Скачать

Скачать торрент! Малышка / Бэйби / Baby (Нирадж Пандеу / Neeraj Pandey) [2015, Индия, Боевик, триллер, криминал, детектив, DVDRip-AVC] DVO + Sub Rus

Как скачивать? · Что такое торрент? · Рейтинг и ограничения

Сайт не распространяет и не хранит электронные версии произведений, а лишь предоставляет доступ к создаваемому пользователями каталогу ссылок на торрент-файлы, которые содержат только списки хеш-сумм

[Профиль] [ЛС]
Показать сообщения:    
Ответить на тему

Текущее время: Сегодня 16:01

Часовой пояс: GMT + 4



Вы не можете начинать темы
Вы не можете отвечать на сообщения
Вы не можете редактировать свои сообщения
Вы не можете удалять свои сообщения
Вы не можете голосовать в опросах
Вы не можете прикреплять файлы к сообщениям
Вы не можете скачивать файлы