Беременный (Сарик Андреасян) [2011, Комедия, фэнтези, BDRip]

Ответить на тему
 
Автор Сообщение

user ®

Стаж: 7 лет 7 месяцев

Сообщений: 20008

Пост Пост: #1 от 29-Мар-2015 01:12

[Цитировать]

Беременный
Жанр: Комедия, фэнтези
Год выпуска: 2011
Продолжительность: 01:23:47
Режиссёр: Сарик Андреасян
В ролях: Дмитрий Дюжев, Михаил Галустян, Анна Седокова, Вилле Хаапасало, Светлана Ходченкова, Дмитрий Шаракоис, Дмитрий Хрусталёв, Виктор Васильев, Валентин Смирнитский, Людмила Артемьева
Описание: Главный герой - ведущий новостей на музыкальном канале Сергей Добролюбов. Своим консерватизмом он явно выбивается из коллектива модного канала. Его скепсис по отношению к чему-то новому - повод для насмешек коллег. Он точно не "звезда" канала. Сергей с женой очень хотят ребенка, но у них есть с этим проблемы. Помочь им может чудо, но Сергей в чудеса не верит... до определенного момента. Чудесным образом желание Сергея иметь ребенка исполняется… он беременеет?! Теперь уже нашему герою предстоит выступить перед близкими живым доказательством того, что чудеса случаются! Особенно символично, что эту новость жена, родители, брат, друг Жора узнали за ужином в честь Дня защитников Отечества. У последнего оказался вполне практичный подход к чуду. Жора убедил Сергея, что беременность не повод скрываться, а возможность обрести славу и деньги. Шоу «Беременный» становится самым популярным телевизионным проектом, а его главный герой - Сергей Добролюбов - настоящей звездой. Но совмещение статусов "мужчины, ждущего ребенка" и "звезды" оказывается непростой задачей.
Качество видео: BDRip [Исходник: Blu-ray 1080p]
Формат видео: AVI
Видео: XviD, 1033 Кбит/с, 640x272 (2.35:1), 24 кадр/с
Аудио: Русский, MP3, 48000 Гц, 128 Кбит/с, 2 канала (Стерео)

Автор рипа - ivandubskoj
MediaInfo
General
Complete name : Beremennyy.2011.BDRip.700MB.avi
Format : AVI
Format/Info : Audio Video Interleave
File size : 701 MiB
Duration : 1h 23mn
Overall bit rate : 1 170 Kbps
Writing application : VirtualDubMod 1.5.10.3 | www.virtualdub-fr.org || (build 2550/release)
Writing library : VirtualDubMod build 2550/release
Copyright : rip by ivandubskoj
Video
ID : 0
Format : MPEG-4 Visual
Format profile : Advanced Simple@L5
Format settings, BVOP : 1
Format settings, QPel : No
Format settings, GMC : No warppoints
Format settings, Matrix : Custom
Codec ID : XVID
Codec ID/Hint : XviD
Duration : 1h 23mn
Bit rate : 1 033 Kbps
Width : 640 pixels
Height : 272 pixels
Display aspect ratio : 2.35:1
Frame rate : 24.000 fps
Color space : YUV
Chroma subsampling : 4:2:0
Bit depth : 8 bits
Scan type : Progressive
Compression mode : Lossy
Bits/(Pixel*Frame) : 0.247
Stream size : 619 MiB (88%)
Writing library : XviD 73
Audio
ID : 1
Format : MPEG Audio
Format version : Version 1
Format profile : Layer 3
Codec ID : 55
Codec ID/Hint : MP3
Duration : 1h 23mn
Bit rate mode : Constant
Bit rate : 128 Kbps
Channel(s) : 2 channels
Sampling rate : 48.0 KHz
Compression mode : Lossy
Stream size : 76.7 MiB (11%)
Alignment : Aligned on interleaves
Interleave, duration : 42 ms (1.00 video frame)
Interleave, preload duration : 504 ms
Writing library : LAME3.99r
Encoding settings : -m s -V 4 -q 0 -lowpass 17 -b 128
Скриншот c названием фильма Скриншоты
Скачать

Скачать торрент!

Как скачивать? · Что такое торрент? · Рейтинг и ограничения

Сайт не распространяет и не хранит электронные версии произведений, а лишь предоставляет доступ к создаваемому пользователями каталогу ссылок на торрент-файлы, которые содержат только списки хеш-сумм

[Профиль] [ЛС]
Показать сообщения:    
Ответить на тему

Текущее время: Сегодня 12:30

Часовой пояс: GMT + 4



Вы не можете начинать темы
Вы не можете отвечать на сообщения
Вы не можете редактировать свои сообщения
Вы не можете удалять свои сообщения
Вы не можете голосовать в опросах
Вы не можете прикреплять файлы к сообщениям
Вы не можете скачивать файлы