Песнь моря / Song of the Sea (Томм Мур / Tomm Moore) [2014, мультфильм, фэнтези, семейный, BDRip] MVO (CatBug TV) + Eng + Sub (rus, eng)

Ответить на тему
 
Автор Сообщение

user ®

Стаж: 13 лет

Сообщений: 15041

Пост Пост: #1 от 28-Мар-2015 22:06

[Цитировать]

Песнь моря / Song of the Sea- Страна: Ирландия, Дания, Бельгия, Люксембург, Франция
Жанр: мультфильм, фэнтези, семейный
Год выпуска: 2014
Продолжительность: 01:33:59
Перевод: Любительский (Многоголосый закадровый) - CatBug TV
Русские субтитры: Есть-Режиссер: Томм Мур / Tomm Moore-Описание: Море всегда чарует своей природой. О морях сложено немало легенд. Некоторые из них мама рассказывает своим сыну и дочери. Эти легенды передаются из поколения в поколение: в морских водах живут удивительные существа - селки. Это заколдованные люди в образе тюленей. Дети сначала воспринимают историю матери как сказку. Но вскоре выясняется что дочь Сирша оказывается последней представительницей чудесных существ. Она - селки. Детям открываются многие тайны, о которых они раньше и не подозревали.-Рейтинг:

MPAA: - Рекомендуется присутствие родителей-Релиз: -Семпл-Качество: [url=http://***/forum/viewtopic.php?t=4971459]BDRip[/url]
Формат: AVI
Видео: 720x384 (1.88:1), 23.976 fps, XviD build 65 ~1825 kbps avg, 0.28 bit/pixel
Аудио: 48 kHz, AC3 Dolby Digital, 3/2 (L,C,R,l,r) + LFE ch, ~384 kbps - Rus
Аудио 2: 48 kHz, AC3 Dolby Digital, 3/2 (L,C,R,l,r) + LFE ch, ~384 kbps - Eng (отдельным файлом)
Субтитры: Русские, Английские-

MI
Format : AVIFormat/Info : Audio Video InterleaveFile size : 1.46 GiBDuration : 1h 33mnOverall bit rate : 2 219 KbpsWriting application : VirtualDubMod 1.5.10.3 | www.virtualdub-fr.org || (build 2550/release)Writing library : VirtualDubMod build 2550/release
VideoID : 0Format : MPEG-4 VisualFormat profile : Advanced Simple@L5Format settings, BVOP : 2Format settings, QPel : NoFormat settings, GMC : No warppointsFormat settings, Matrix : CustomCodec ID : XVIDCodec ID/Hint : XviDDuration : 1h 33mnBit rate : 1 826 KbpsWidth : 720 pixelsHeight : 384 pixelsDisplay aspect ratio : 1.85:1Frame rate : 23.976 fpsColor space : YUVChroma subsampling : 4:2:0Bit depth : 8 bitsScan type : ProgressiveCompression mode : LossyBits/(Pixel*Frame) : 0.275Stream size : 1.20 GiB (82%)Writing library : XviD 65
AudioID : 1Format : AC-3Format/Info : Audio Coding 3Mode extension : CM (complete main)Format settings, Endianness : BigCodec ID : 2000Duration : 1h 33mnBit rate mode : ConstantBit rate : 384 KbpsChannel(s) : 6 channelsChannel positions : Front: L C R, Side: L R, LFESampling rate : 48.0 KHzBit depth : 16 bitsCompression mode : LossyStream size : 258 MiB (17%)Alignment : Split accross interleavesInterleave, duration : 42 ms (1.00 video frame)Interleave, preload duration : 500 ms
Знаете ли Вы, что...
  • В ирландской мифологии селки - тюлений народ, добрые существа с карими глазами. Тюленьи шкуры позволяют им жить в море, однако они время от времени должны выныривать, чтобы глотнуть воздуха. По некоторым источникам, селки - потомки людей, изгнанных в море за свои преступления. Вот почему их так тянет на сушу. [url=http://***/forum/tracker.php?f=1900,208,209,2258,2343,2365,4,484,521,539,822,930&nm=Song%20of%20the%20Sea]Все раздачи мультфильма![/url]
Скачать

Скачать торрент! Песнь моря / Song of the Sea (Томм Мур / Tomm Moore) [2014, мультфильм, фэнтези, семейный, BDRip] MVO (CatBug TV) + Eng + Sub (rus, eng)

Как скачивать? · Что такое торрент? · Рейтинг и ограничения

Сайт не распространяет и не хранит электронные версии произведений, а лишь предоставляет доступ к создаваемому пользователями каталогу ссылок на торрент-файлы, которые содержат только списки хеш-сумм

[Профиль] [ЛС]
Показать сообщения:    
Ответить на тему

Текущее время: Сегодня 19:16

Часовой пояс: GMT + 4



Вы не можете начинать темы
Вы не можете отвечать на сообщения
Вы не можете редактировать свои сообщения
Вы не можете удалять свои сообщения
Вы не можете голосовать в опросах
Вы не можете прикреплять файлы к сообщениям
Вы не можете скачивать файлы