Последний сентябрь / Сентябрьский Рассвет / September Dawn (Кристофер Кэйн / Christopher Cain) [2007, США, Канада, вестерн, драма, BDRip 720p] 2x DVO + Original Eng + Sub Eng

Ответить на тему
 
Автор Сообщение

user ®

Стаж: 7 лет 7 месяцев

Сообщений: 20008

Пост Пост: #1 от 28-Мар-2015 22:06

[Цитировать]

Последний сентябрь / Сентябрьский Рассвет / September Dawn
-Страна: США, Канада
Жанр: вестерн, драма
Год выпуска: 2007
Продолжительность: 01:51:30-Перевод 1: Профессиональный (двухголосый закадровый) Студия Инис
Перевод 2: Любительский (двухголосый закадровый)
Cубтитры: английские
Оригинальная аудиодорожка: английский-Режиссер: Кристофер Кэйн / Christopher Cain-В ролях: Джон Войт, Трент Форд, Тамара Хоуп, Джон Гриз, Тейлор Хэндли, Хантли Риттер, Шон Джонстон, Лолита Давидович-Описание:
История, которая произошла в американском штате Юта 11 сентября 1857 года. В тот день на поезд было совершено нападение, в результате чего погибли более чем 120 мужчин, женщин и детей. Считается, что виновными в этом нападении были мормоны. Юта до сих пор считается пристанищем приверженцев этой секты, поэтому американские режиссёры обычно стараются и вовсе не снимать об этом штате.-Сэмпл: Скачать-Тип релиза: BDRip 720p (September.Dawn.2007.720p.BluRay.DD2.0.x264-VietHD)
Контейнер: MKV
Видео: 1280×718 (16:9); 5 079 Kbps; 23.976 fps; 0.230 bpp
Аудио 1: Russian; AC3; 48.0 KHz; 2ch; 192 kbps DVO Студия Инис
Аудио 2: Russian; AC3; 48.0 KHz; 2ch; 192 kbps DVO
Аудио 3: English; AC3; 48.0 KHz; 2ch; 256 kbps
MediaInfo
Format : Matroska
Format version : Version 4 / Version 2
File size : 4.54 GiB
Duration : 1h 51mn
Overall bit rate : 5 831 Kbps
Movie name : F2
Encoded date : UTC 2015-03-25 06:18:14
Writing application : mkvmerge v7.2.0 ('On Every Street') 64bit built on Sep 13 2014 15:52:10
Writing library : libebml v1.3.0 + libmatroska v1.4.1
_STATISTICS_WRITING_APP : mkvmerge v7.2.0 ('On Every Street') 64bit built on Sep 13 2014 15:52:10
_STATISTICS_WRITING_DATE_UTC : 2015-03-25 06:18:14
_STATISTICS_TAGS : BPS DURATION NUMBER_OF_FRAMES NUMBER_OF_BYTES
DURATION : 01:51:27.424000000
NUMBER_OF_FRAMES : 208982
NUMBER_OF_BYTES : 160498176
Video
ID : 1
Format : AVC
Format/Info : Advanced Video Codec
Format profile : High@L4.1
Format settings, CABAC : Yes
Format settings, ReFrames : 9 frames
Codec ID : V_MPEG4/ISO/AVC
Duration : 1h 51mn
Bit rate : 5 075 Kbps
Width : 1 280 pixels
Height : 718 pixels
Display aspect ratio : 16:9
Frame rate mode : Constant
Frame rate : 23.976 fps
Color space : YUV
Chroma subsampling : 4:2:0
Bit depth : 8 bits
Scan type : Progressive
Bits/(Pixel*Frame) : 0.230
Stream size : 3.95 GiB (87%)
Writing library : x264 core 142 r2479kMod dd79a61
Encoding settings : cabac=1 / ref=9 / deblock=1:-3:-3 / analyse=0x3:0x133 / me=umh / subme=10 / psy=1 / fade_compensate=0.00 / psy_rd=1.08:0.00 / mixed_ref=1 / me_range=24 / chroma_me=1 / trellis=2 / 8x8dct=1 / cqm=0 / deadzone=21,11 / fast_pskip=1 / chroma_qp_offset=-2 / threads=6 / lookahead_threads=1 / sliced_threads=0 / nr=0 / decimate=1 / interlaced=0 / bluray_compat=0 / constrained_intra=0 / fgo=0 / bframes=11 / b_pyramid=2 / b_adapt=2 / b_bias=0 / direct=3 / weightb=1 / open_gop=0 / weightp=2 / keyint=250 / keyint_min=23 / scenecut=40 / intra_refresh=0 / rc=crf / mbtree=0 / crf=16.7000 / qcomp=0.65 / qpmin=0 / qpmax=69 / qpstep=4 / ip_ratio=1.30 / pb_ratio=1.20 / aq=3:0.68
Language : English
Default : Yes
Forced : No
Matrix coefficients : BT.709
_STATISTICS_WRITING_APP : mkvmerge v7.2.0 ('On Every Street') 64bit built on Sep 13 2014 15:52:10
_STATISTICS_WRITING_DATE_UTC : 2015-03-25 06:18:14
_STATISTICS_TAGS : BPS DURATION NUMBER_OF_FRAMES NUMBER_OF_BYTES
DURATION : 01:51:30.017000000
NUMBER_OF_FRAMES : 160400
NUMBER_OF_BYTES : 4339116841
Audio #1
ID : 2
Format : AC-3
Format/Info : Audio Coding 3
Mode extension : CM (complete main)
Format settings, Endianness : Big
Codec ID : A_AC3
Duration : 1h 51mn
Bit rate mode : Constant
Bit rate : 192 Kbps
Channel(s) : 2 channels
Channel positions : Front: L R
Sampling rate : 48.0 KHz
Bit depth : 16 bits
Compression mode : Lossy
Stream size : 153 MiB (3%)
Title : MVO Студия Ирис
Language : Russian
Default : Yes
Forced : No
Audio #2
ID : 3
Format : AC-3
Format/Info : Audio Coding 3
Mode extension : CM (complete main)
Format settings, Endianness : Big
Codec ID : A_AC3
Duration : 1h 51mn
Bit rate mode : Constant
Bit rate : 192 Kbps
Channel(s) : 2 channels
Channel positions : Front: L R
Sampling rate : 48.0 KHz
Bit depth : 16 bits
Compression mode : Lossy
Stream size : 153 MiB (3%)
Title : MVO
Language : Russian
Default : No
Forced : No
Audio #3
ID : 4
Format : AC-3
Format/Info : Audio Coding 3
Mode extension : CM (complete main)
Format settings, Endianness : Big
Codec ID : A_AC3
Duration : 1h 51mn
Bit rate mode : Constant
Bit rate : 256 Kbps
Channel(s) : 2 channels
Channel positions : Front: L R
Sampling rate : 48.0 KHz
Bit depth : 16 bits
Compression mode : Lossy
Stream size : 204 MiB (4%)
Language : English
Default : No
Forced : No
Text
ID : 5
Format : UTF-8
Codec ID : S_TEXT/UTF8
Codec ID/Info : UTF-8 Plain Text
Language : English
Default : No
Forced : No
Menu
00:00:00.000 : en:00:00:00.000
00:08:59.914 : en:00:08:59.914
00:17:59.912 : en:00:17:59.912
00:26:59.952 : en:00:26:59.952
00:35:59.949 : en:00:35:59.949
00:44:59.947 : en:00:44:59.947
00:53:59.945 : en:00:53:59.945
01:02:59.943 : en:01:02:59.943
01:11:59.941 : en:01:11:59.941
01:20:59.938 : en:01:20:59.938
01:29:59.936 : en:01:29:59.936
01:38:59.851 : en:01:38:59.851
Скриншоты
Скачать

Скачать торрент!

Как скачивать? · Что такое торрент? · Рейтинг и ограничения

Сайт не распространяет и не хранит электронные версии произведений, а лишь предоставляет доступ к создаваемому пользователями каталогу ссылок на торрент-файлы, которые содержат только списки хеш-сумм

[Профиль] [ЛС]
Показать сообщения:    
Ответить на тему

Текущее время: Сегодня 10:02

Часовой пояс: GMT + 4



Вы не можете начинать темы
Вы не можете отвечать на сообщения
Вы не можете редактировать свои сообщения
Вы не можете удалять свои сообщения
Вы не можете голосовать в опросах
Вы не можете прикреплять файлы к сообщениям
Вы не можете скачивать файлы