Не Любо - Не Слушай (Леонид Носырев) [1977 г., мультфильм, DVB]

Ответить на тему
 
Автор Сообщение

user ®

Стаж: 7 лет 7 месяцев

Сообщений: 20008

Пост Пост: #1 от 27-Мар-2015 20:39

[Цитировать]

Не Любо - Не Слушай
Страна: СССР, Союзмультфильм
Жанр: мультфильм
Год выпуска: 1977
Продолжительность: 00:09:42
Режиссёр: Леонид Носырев
Описание: экранизация сказок Бориса Шергина и Степана Писахова. Включает в себя сюжеты "Вечные Льды" (жители Архангельска сдают в прокат приезжим вечные льдины, для катания по морю. Но некоторые получают бракованные льдины...) и "Морожены песни" ( В архангельском крае народные песни застывают на зимнем морозе, превращаясь в узоры. Прибывший в Архангельск иностранец отправляет мороженые песни за границу и устраивает концерт).
Доп. информация:

Релиз группы:
Трансляция спутникового канала:

Качество видео: DVB
Формат видео: MPEG-PS
Видео: MPEG2 Video, 720x576 (4:3), 25 fps, 4000 kbps
Аудио: MPEG Audiо, 2 сh, 48 kHz, 192 kbps
Сравнение
[url=http://***/forum/viewtopic.php?t=1224307]http://***/forum/viewtopic.php?t=1224307[/url]
http://screenshotcomparison.com/comparison/117941
[url=http://***/forum/viewtopic.php?t=3564224]http://***/forum/viewtopic.php?t=3564224[/url]
http://screenshotcomparison.com/comparison/117944
[url=http://***/forum/viewtopic.php?t=1112698]http://***/forum/viewtopic.php?t=1112698[/url]
http://screenshotcomparison.com/comparison/117946
MediaInfo
General
Complete name : D:\Не любо - не слушай. (1977)_DVB by SLuMeP.mpg
Format : MPEG-PS
File size : 299 MiB
Duration : 9mn 42s
Overall bit rate mode : Variable
Overall bit rate : 4 304 Kbps
Video
ID : 224 (0xE0)
Format : MPEG Video
Format version : Version 2
Format profile : Main@Main
Format settings, BVOP : No
Format settings, Matrix : Custom
Format settings, GOP : M=3, N=12
Duration : 9mn 42s
Bit rate mode : Variable
Bit rate : 4 027 Kbps
Maximum bit rate : 5 000 Kbps
Width : 720 pixels
Height : 576 pixels
Display aspect ratio : 4:3
Frame rate : 25.000 fps
Standard : PAL
Color space : YUV
Chroma subsampling : 4:2:0
Bit depth : 8 bits
Scan type : Interlaced
Scan order : Top Field First
Compression mode : Lossy
Bits/(Pixel*Frame) : 0.388
Time code of first frame : 00:00:00:00
Time code source : Group of pictures header
Stream size : 280 MiB (94%)
Audio
ID : 192 (0xC0)
Format : MPEG Audio
Format version : Version 1
Format profile : Layer 2
Duration : 9mn 42s
Bit rate mode : Constant
Bit rate : 192 Kbps
Channel(s) : 2 channels
Sampling rate : 48.0 KHz
Compression mode : Lossy
Stream size : 13.3 MiB (4%)
Скриншоты
Скачать

Скачать торрент!

Как скачивать? · Что такое торрент? · Рейтинг и ограничения

Сайт не распространяет и не хранит электронные версии произведений, а лишь предоставляет доступ к создаваемому пользователями каталогу ссылок на торрент-файлы, которые содержат только списки хеш-сумм

[Профиль] [ЛС]
Показать сообщения:    
Ответить на тему

Текущее время: Сегодня 20:10

Часовой пояс: GMT + 4



Вы не можете начинать темы
Вы не можете отвечать на сообщения
Вы не можете редактировать свои сообщения
Вы не можете удалять свои сообщения
Вы не можете голосовать в опросах
Вы не можете прикреплять файлы к сообщениям
Вы не можете скачивать файлы