Молчание / Звуки тишины / Khamoshiyan (Каран Дарра / Karan Darra) [2015, Индия, Ужаы, мистика, триллер, детектив, DVDRip-AVC] DVO + Sub Rus

Ответить на тему
 
Автор Сообщение

user ®

Стаж: 12 лет

Сообщений: 15092

Пост Пост: #1 от 27-Мар-2015 01:51

[Цитировать]

Молчание / Khamoshiyan- Страна: Индия
Жанр: Ужаы, мистика, триллер, детектив
Год выпуска: 2015
Продолжительность: 01:58:12-Перевод: Любительский (двухголосый закадровый) - DeadSno & den904
Cубтитры: русские (на песни)--Режиссер: Каран Дарра / Karan Darra-В ролях: Гурмит Чхоудхари, Али Фазал, Сапна Бабби, Винод Рават, Дебина Боннерджи--Описание: Мира - одинокая девушка, живущая совсем одна в огромном отеле. Именно туда, в поисках вдохновения, приезжает писатель романов Кабир, человек оставивший позади себя свою неудачную и неоконченную историю любви. Молодые люди сразу тянутся друг другу, потому что их объединяет одно. Молчание, которое съедает их изнутри и не даёт им полностью раскрыться друг перед другом. Но как говорится, все мы становимся жертвами собственных тайн. Что же кроется за таинственным молчанием Миры и какую тайну она скрывает?-- --Релиз-группа:
Озвучка: DeadSno & den904
Озвучка по субтитрам: Honey&Haseena
Озвучено по заказу: Анатолия Семеновича Курпатова--Качество видео: DVDRip-AVC
Формат видео: MKV-Видео: 720х304 (2.35:1), 23.976 fps, AVC, ~1322 kbps avg, 0.25 bit/pixel
Аудио: 48 kHz, AC3, 2 ch, ~192 kbps--Сэмпл / Sample-- -
-
MI
Общее
Уникальный идентификатор : 201485441812759063542228436652128225266 (0x9794AF4046BB74FDA927B1BD65E047F2)
Полное имя : J:\Молчание.mkv
Формат : Matroska
Версия формата : Version 4 / Version 2
Размер файла : 1,25 Гбайт
Продолжительность : 1 ч. 58 м.
Общий поток : 1516 Кбит/сек
Дата кодирования : UTC 2015-03-25 15:41:33
Программа кодирования : mkvmerge v7.2.0 ('On Every Street') 64bit built on Sep 13 2014 15:52:10
Библиотека кодирования : libebml v1.3.0 + libmatroska v1.4.1
DURATION : 01:58:12.352000000
NUMBER_OF_FRAMES : 221636
NUMBER_OF_BYTES : 170216448
_STATISTICS_WRITING_APP : mkvmerge v7.2.0 ('On Every Street') 64bit built on Sep 13 2014 15:52:10
_STATISTICS_WRITING_DATE_UTC : 2015-03-25 15:41:33
_STATISTICS_TAGS : BPS DURATION NUMBER_OF_FRAMES NUMBER_OF_BYTES
Видео
Идентификатор : 1
Формат : AVC
Формат/Информация : Advanced Video Codec
Профиль формата : High@L4.1
Параметр CABAC формата : Да
Параметр ReFrames формата : 5 кадров
Идентификатор кодека : V_MPEG4/ISO/AVC
Продолжительность : 1 ч. 58 м.
Битрейт : 1322 Кбит/сек
Ширина : 720 пикселей
Высота : 304 пикселя
Соотношение сторон : 2,35:1
Режим частоты кадров : Постоянный
Частота кадров : 23,976 кадра/сек
Цветовое пространство : YUV
Субдискретизация насыщенности : 4:2:0
Битовая глубина : 8 бит
Тип развёртки : Прогрессивная
Бит/(Пиксели*Кадры) : 0.252
Размер потока : 1,07 Гбайт (85%)
Библиотека кодирования : x264 core 142 r2431 ac76440
Настройки программы : cabac=1 / ref=5 / deblock=1:0:0 / analyse=0x3:0x133 / me=umh / subme=8 / psy=1 / psy_rd=1.00:0.15 / mixed_ref=1 / me_range=16 / chroma_me=1 / trellis=1 / 8x8dct=1 / cqm=0 / deadzone=21,11 / fast_pskip=1 / chroma_qp_offset=-3 / threads=12 / lookahead_threads=2 / sliced_threads=0 / nr=0 / decimate=1 / interlaced=0 / bluray_compat=0 / constrained_intra=0 / bframes=3 / b_pyramid=2 / b_adapt=2 / b_bias=0 / direct=3 / weightb=1 / open_gop=0 / weightp=2 / keyint=230 / keyint_min=23 / scenecut=40 / intra_refresh=0 / rc_lookahead=40 / rc=2pass / mbtree=1 / bitrate=1322 / ratetol=1.0 / qcomp=0.60 / qpmin=10 / qpmax=69 / qpstep=4 / cplxblur=20.0 / qblur=0.5 / ip_ratio=1.40 / aq=1:1.00
Язык : English
Default : Да
Forced : Нет
Основные цвета : Generic film
colour_range : Limited
Аудио
Идентификатор : 3
Формат : AC-3
Формат/Информация : Audio Coding 3
Расширение режима : CM (complete main)
Параметр Endianness формата : Big
Идентификатор кодека : A_AC3
Продолжительность : 1 ч. 58 м.
Вид битрейта : Постоянный
Битрейт : 192 Кбит/сек
Каналы : 2 канала
Расположение каналов : Front: L R
Частота : 48,0 КГц
Битовая глубина : 16 бит
Метод сжатия : С потерями
Размер потока : 162 Мбайт (13%)
Default : Да
Forced : Нет
Текст
Идентификатор : 2
Формат : UTF-8
Идентификатор кодека : S_TEXT/UTF8
Идентификатор кодека/Информация : UTF-8 Plain Text
Default : Да
Forced : Нет

-
Скриншот c названием фильма
-
Скриншоты -
Скачать

Скачать торрент! Молчание / Звуки тишины / Khamoshiyan (Каран Дарра / Karan Darra) [2015, Индия, Ужаы, мистика, триллер, детектив, DVDRip-AVC] DVO + Sub Rus

Как скачивать? · Что такое торрент? · Рейтинг и ограничения

Сайт не распространяет и не хранит электронные версии произведений, а лишь предоставляет доступ к создаваемому пользователями каталогу ссылок на торрент-файлы, которые содержат только списки хеш-сумм

[Профиль] [ЛС]
Показать сообщения:    
Ответить на тему

Текущее время: Сегодня 13:05

Часовой пояс: GMT + 4



Вы не можете начинать темы
Вы не можете отвечать на сообщения
Вы не можете редактировать свои сообщения
Вы не можете удалять свои сообщения
Вы не можете голосовать в опросах
Вы не можете прикреплять файлы к сообщениям
Вы не можете скачивать файлы