Глушь / Backcountry (Адам МакДональд / Adam MacDonald) [2014, Канада, триллер, драма, WEB-DL 720p] VO (Хихикающий доктор) + Sub Rus, Eng + Original Eng

Ответить на тему
 
Автор Сообщение

user ®

Стаж: 7 лет 7 месяцев

Сообщений: 20008

Пост Пост: #1 от 27-Мар-2015 01:51

[Цитировать]

Глушь / Backcountry
Страна: Канада
Студия: Fella Films, Northern Ontario Heritage Fund, Téléfilm Canada
Жанр: триллер, драма
Год выпуска: 2014
Продолжительность: 01:31:30
Перевод: Одноголосый закадровый (Хихикающий доктор)
Cубтитры: русские (dagon66), английские
Оригинальная аудиодорожка: английский
Режиссер: Адам МакДональд / Adam MacDonald
В ролях: Мисси Перегрим, Джефф Руп, Эрик Бальфур, Николас Кэмпбелл, Мелани Маллен, Эшли Нэй
Описание: Романтическое путешествие молодой пары в дикой местности, не проходит не замеченным для медведя-людоеда. Фильм снят по реальным событиям.
Сэмпл: https://www.sendspace.com/file/yae33o
Тип релиза: WEB-DL 720p
Контейнер: MKV
Видео: MPEG4 Video (H264) 3846 Кб/с, 1280x532, 23.976 кадр/с
Аудио: MP3 44100Hz stereo 192kbps, Русский
Аудио 2: Dolby AC3 48000Hz 6ch 384kbps, English
Формат субтитров: softsub (SRT)
MediaInfo
General
Unique ID : 220071079936069970376392757059402492479 (0xA59025F54D24AD369770999EBAD66A3F)
Complete name : G:\КИНО 2\Backcountry\Backcountry.2014.720p.WEB-DL.DD5.1.H.264-Dagon66.mkv
Format : Matroska
Format version : Version 4 / Version 2
File size : 2.88 GiB
Duration : 1h 31mn
Overall bit rate : 4 512 Kbps
Encoded date : UTC 2015-03-24 09:06:18
Writing application : mkvmerge v6.1.0 ('Old Devil') built on Mar 2 2013 14:32:37
Writing library : libebml v1.3.0 + libmatroska v1.4.0
DURATION : 01:14:35.403000000
NUMBER_OF_FRAMES : 727
NUMBER_OF_BYTES : 28785
_STATISTICS_WRITING_APP : mkvmerge v7.0.0 ('Where We Going') 64bit built on Jun 9 2014 15:16:27
_STATISTICS_WRITING_DATE_UTC : 2015-03-20 04:42:08
_STATISTICS_TAGS : BPS DURATION NUMBER_OF_FRAMES NUMBER_OF_BYTES
Video
ID : 1
Format : AVC
Format/Info : Advanced Video Codec
Format profile : Main@L3.1
Format settings, CABAC : No
Format settings, ReFrames : 2 frames
Codec ID : V_MPEG4/ISO/AVC
Duration : 1h 31mn
Bit rate : 3 846 Kbps
Width : 1 280 pixels
Height : 532 pixels
Display aspect ratio : 2.40:1
Frame rate mode : Constant
Frame rate : 23.976 fps
Color space : YUV
Chroma subsampling : 4:2:0
Bit depth : 8 bits
Scan type : Progressive
Bits/(Pixel*Frame) : 0.236
Stream size : 2.46 GiB (85%)
Language : English
Default : Yes
Forced : No
Color primaries : BT.709
Transfer characteristics : BT.709
Matrix coefficients : BT.709
Audio #1
ID : 2
Format : MPEG Audio
Format version : Version 1
Format profile : Layer 3
Codec ID : A_MPEG/L3
Codec ID/Hint : MP3
Duration : 1h 31mn
Bit rate mode : Constant
Bit rate : 192 Kbps
Channel(s) : 2 channels
Sampling rate : 44.1 KHz
Compression mode : Lossy
Stream size : 126 MiB (4%)
Title : Хихикающий доктор
Language : Russian
Default : Yes
Forced : Yes
Audio #2
ID : 3
Format : AC-3
Format/Info : Audio Coding 3
Mode extension : CM (complete main)
Format settings, Endianness : Big
Codec ID : A_AC3
Duration : 1h 31mn
Bit rate mode : Constant
Bit rate : 384 Kbps
Channel(s) : 6 channels
Channel positions : Front: L C R, Side: L R, LFE
Sampling rate : 48.0 KHz
Bit depth : 16 bits
Compression mode : Lossy
Stream size : 251 MiB (9%)
Language : English
Default : No
Forced : No
Text #1
ID : 4
Format : UTF-8
Codec ID : S_TEXT/UTF8
Codec ID/Info : UTF-8 Plain Text
Title : dagon66
Language : Russian
Default : No
Forced : No
Text #2
ID : 5
Format : UTF-8
Codec ID : S_TEXT/UTF8
Codec ID/Info : UTF-8 Plain Text
Language : English
Default : No
Forced : No
Menu
00:00:00.000 : en:1
00:10:26.000 : en:2
00:26:52.000 : en:3
00:37:42.000 : en:4
00:48:56.000 : en:5
01:04:26.000 : en:6
01:14:46.000 : en:7
01:26:09.000 : en:8
Скриншоты
Скачать

Скачать торрент!

Как скачивать? · Что такое торрент? · Рейтинг и ограничения

Сайт не распространяет и не хранит электронные версии произведений, а лишь предоставляет доступ к создаваемому пользователями каталогу ссылок на торрент-файлы, которые содержат только списки хеш-сумм

[Профиль] [ЛС]
Показать сообщения:    
Ответить на тему

Текущее время: Сегодня 20:34

Часовой пояс: GMT + 4



Вы не можете начинать темы
Вы не можете отвечать на сообщения
Вы не можете редактировать свои сообщения
Вы не можете удалять свои сообщения
Вы не можете голосовать в опросах
Вы не можете прикреплять файлы к сообщениям
Вы не можете скачивать файлы