Волшебная палочка (Зинаида Брумберг, Валентина Брумберг) [1972, Рисованный мультфильм, DVDRip]

Ответить на тему
 
Автор Сообщение

user ®

Стаж: 7 лет 11 месяцев

Сообщений: 20008

Пост Пост: #1 от 26-Мар-2015 22:45

[Цитировать]

Волшебная палочка
Страна: СССР
Жанр: Рисованный мультфильм
Продолжительность: 00:15:39
Год выпуска: 1972
Русские субтитры: нет
Режиссёр: Зинаида Брумберг, Валентина Брумберг
Описание: Каждый из нас в детстве задавался вопросом: "А что бы я сделал, если бы у меня была волшебная палочка?"
Теперь у Вас есть возможность, взглянуть на желания других.
Доп. информация: Производство: «Союзмультфильм».
Автор сценария: Л.Завальнюк
Художник-постановник: Т.Сазонова
Композитор: Ю.Саульский
Кинооператор: Б.Котов
Звукооператор: Г.Мартынюк
Релиз группы:
Рип и синхронизация звука dvdss
Качество: DVDRip
Формат: AVI
Видео: 704x528 (1.33:1), 25 fps, XviD 65 ~2297 kbps avg, 0.25 bit/pixel
Аудио: 48 kHz, AC3 Dolby Digital, 3/2 (L,C,R,l,r) + LFE ch, ~384.00 kbps avg
Субтитры: нет
Подробные технические данные
Format : AVIFormat/Info : Audio Video InterleaveFile size : 301 MiBDuration : 15mn 39sOverall bit rate : 2 691 KbpsWriting application : VirtualDubModRus 1.5.10.2 (build 2542/release)Copyright : Rutracker.orgComment : RG Multfilms by dvdss
VideoID : 0Format : MPEG-4 VisualFormat profile : Advanced Simple@L5Format settings, BVOP : 2Format settings, QPel : NoFormat settings, GMC : No warppointsFormat settings, Matrix : CustomCodec ID : XVIDCodec ID/Hint : XviDDuration : 15mn 39sBit rate : 2 297 KbpsWidth : 704 pixelsHeight : 528 pixelsDisplay aspect ratio : 5:4Original display aspect ratio : 4:3Frame rate : 25.000 fpsColor space : YUVChroma subsampling : 4:2:0Bit depth : 8 bitsScan type : ProgressiveCompression mode : LossyBits/(Pixel*Frame) : 0.247Stream size : 257 MiB (85%)Writing library : XviD 65
AudioID : 1Format : AC-3Format/Info : Audio Coding 3Mode extension : CM (complete main)Format settings, Endianness : BigCodec ID : 2000Duration : 15mn 39sBit rate mode : ConstantBit rate : 384 KbpsChannel(s) : 6 channelsChannel positions : Front: L C R, Side: L R, LFESampling rate : 48.0 KHzBit depth : 16 bitsCompression mode : LossyDelay relative to video : 2s 16msStream size : 43.0 MiB (14%)Alignment : Split accross interleavesInterleave, duration : 40 ms (1.00 video frame)Interleave, preload duration : 500 ms
сравнение
Сравнение с [url=http://***/forum/viewtopic.php?t=1985613]http://***/forum/viewtopic.php?t=1985613[/url]
Тут -- http://screenshotcomparison.com/comparison/118381/picture:0
Скриншоты
Скачать

Скачать торрент!

Как скачивать? · Что такое торрент? · Рейтинг и ограничения

Сайт не распространяет и не хранит электронные версии произведений, а лишь предоставляет доступ к создаваемому пользователями каталогу ссылок на торрент-файлы, которые содержат только списки хеш-сумм

[Профиль] [ЛС]
Показать сообщения:    
Ответить на тему

Текущее время: Сегодня 19:54

Часовой пояс: GMT + 4



Вы не можете начинать темы
Вы не можете отвечать на сообщения
Вы не можете редактировать свои сообщения
Вы не можете удалять свои сообщения
Вы не можете голосовать в опросах
Вы не можете прикреплять файлы к сообщениям
Вы не можете скачивать файлы