Кража / Rechipo (Парачури Мурали / Murali Paruchari) [2009, Индия, Боевик, мелодрама, DVDRip] + Sub Rus

Ответить на тему
 
Автор Сообщение

user ®

Стаж: 12 лет

Сообщений: 15092

Пост Пост: #1 от 26-Мар-2015 16:33

[Цитировать]

Кража / Rechipo
Страна: Индия
Жанр: Боевик, мелодрама
Год выпуска: 2009
Продолжительность: 02:30:27
Перевод: Субтитры innnna
Cубтитры: русские
Оригинальная аудиодорожка: телугу
Режиссер: Парачури Мурали / Murali Paruchari
В ролях: Нитин, Илеана, Али, Рагху Бабу, Таникелла Бхарани, Хема, Вену Мадхав, М.С. Нарьяна, Аахутхи Прасад
Описание: Шива - современный Робин Гуд, который грабит богатых и раздает деньги бедным и нуждающимся. Однажды он случайно узнал о больших деньгах (500 крор!), которые находятся в доме министра внутренних дел. Он придумывает план и, наконец, крадет деньги. Однако Шива не знал всю истину про украденные деньги. Это были деньги мафии, полученные благодаря крикету. Затем полиция сумела конфисковать деньги и поместила в сейф министра внутренних дел. Мафия похищает дочь министра внутренних дел и взамен требует возвращения своих денег и освобождения арестованных бандитов. Шива узнает местонахождение своей подруги и отправляется в Дубай сводить счеты с мафией. Как он сделает это? Смотрите фильм!
Доп. информация:
Перевод и редакция : innnna (Спасибо!)
Сэмпл: http://multi-up.com/1040390
Качество видео: DVDRip
Формат видео: AVI
Видео: XviD MPEG-4, 672x288 (2.33:1), 23.976 fps, 1151 kbps avg
Аудио: Telugu AC3 Dolby Digital, 48 kHz, 3/2 (L,C,R,l,r) + LFE ch, 224 kbps
Формат субтитров: softsub (SRT)
Доп. информация о субтитрах: Автор: innnna (Спасибо!)
MediaInfo
General
Complete name : F:\Kraja.2009.DVDRip.XviD.BwTorrents\Kraja.2009.DVDRip.XviD.BwTorrents.avi
Format : AVI
Format/Info : Audio Video Interleave
Format profile : OpenDML
File size : 1.45 GiB
Duration : 2h 30mn
Overall bit rate : 1 382 Kbps
Writing application : AVI-Mux GUI 1.17.7, Aug 8 2006 20:59:17
Video
ID : 0
Format : MPEG-4 Visual
Format profile : AdvancedSimple@L5
Format settings, BVOP : Yes
Format settings, QPel : Yes
Format settings, GMC : No warppoints
Format settings, Matrix : Default (H.263)
Codec ID : XVID
Codec ID/Hint : XviD
Duration : 2h 30mn
Bit rate : 1 153 Kbps
Width : 672 pixels
Height : 288 pixels
Display aspect ratio : 2.35
Frame rate : 23.976 fps
Resolution : 24 bits
Colorimetry : 4:2:0
Scan type : Progressive
Bits/(Pixel*Frame) : 0.248
Stream size : 1.21 GiB (83%)
Writing library : XviD 1.2.1 (UTC 2008-12-04)
Audio
ID : 1
Format : AC-3
Format/Info : Audio Coding 3
Codec ID : 2000
Duration : 2h 30mn
Bit rate mode : Constant
Bit rate : 224 Kbps
Channel(s) : 6 channels
Channel positions : Front: L C R, Surround: L R, LFE
Sampling rate : 48.0 KHz
Stream size : 241 MiB (16%)
Alignment : Aligned on interleaves
Interleave, duration : 64 ms (1.53 video frames)
Interleave, preload duration : 192 ms
Скриншоты Фрагмент субтитров
8
00:02:13,233 --> 00:02:16,803
Максад! Мы врачи, которые
смогут тебе помочь.
9
00:02:16,803 --> 00:02:19,105
Ты можешь рассказать
все без опаски.
10
00:02:19,105 --> 00:02:21,775
Мы можем продолжать?
- Чем ты занимаешься?
11
00:02:21,775 --> 00:02:29,315
Я занимаюсь поставкой оружия,
переводом денег в Индию.
12
00:02:29,315 --> 00:02:34,154
Наркотиками занимается Анвар Кхан.
13
00:02:34,154 --> 00:02:38,892
Кто остальные?
- В Калькутте - Рашид.
14
00:02:38,892 --> 00:02:40,621
Калькутта
15
00:02:43,763 --> 00:02:46,493
В Мумбаи - Рияскхан.
16
00:02:52,305 --> 00:02:55,672
В Мирате - Амахедулла Кхан.
17
00:02:56,176 --> 00:02:57,234
Ты...
18
00:02:58,244 --> 00:02:59,446
Зачем ты приехал сюда?
19
00:02:59,446 --> 00:03:12,459
Переправить 500 крор, полученных
на ставках в крикете в Сингапуре...
20
00:03:12,459 --> 00:03:14,861
Где сейчас деньги,
которые переправляются из Сингапура?
21
00:03:14,861 --> 00:03:18,932
На счету у нашего пакистанца в Ливии.
22
00:03:18,932 --> 00:03:21,334
Ты сказал, что деньги
получены на ставках в крикете.
23
00:03:21,334 --> 00:03:24,861
Каким образом? Расскажи.
- Эти деньги...
24
00:03:30,710 --> 00:03:32,473
Объединенные Арабские Эмираты
25
00:03:32,474 --> 00:03:37,074
Надо разобраться с ситуацией,
сложившейся после ареста Максада.
26
00:03:38,375 --> 00:03:41,475
У нам мало времени.
Необходимо возобновить все поставки.
27
00:03:41,476 --> 00:03:44,076
Нельзя допустить разрушение всего.
28
00:03:44,177 --> 00:03:46,177
Сэр, все будет в порядке.
Мы с Майклом разберемся.
29
00:03:47,478 --> 00:03:51,178
Майкл останется пока здесь,
а потом я его отправлю его к тебе.
Скачать

Скачать торрент! Кража / Rechipo (Парачури Мурали / Murali Paruchari) [2009, Индия, Боевик, мелодрама, DVDRip] + Sub Rus

Как скачивать? · Что такое торрент? · Рейтинг и ограничения

Сайт не распространяет и не хранит электронные версии произведений, а лишь предоставляет доступ к создаваемому пользователями каталогу ссылок на торрент-файлы, которые содержат только списки хеш-сумм

[Профиль] [ЛС]
Показать сообщения:    
Ответить на тему

Текущее время: Сегодня 12:16

Часовой пояс: GMT + 4



Вы не можете начинать темы
Вы не можете отвечать на сообщения
Вы не можете редактировать свои сообщения
Вы не можете удалять свои сообщения
Вы не можете голосовать в опросах
Вы не можете прикреплять файлы к сообщениям
Вы не можете скачивать файлы