Сироп / Syrup (Арам Раппапорт / Aram Rappaport) [2012, США, драма, мелодрама, комедия, HDTV 1080i] DVO

Ответить на тему
 
Автор Сообщение

user ®

Стаж: 7 лет 7 месяцев

Сообщений: 20008

Пост Пост: #1 от 26-Мар-2015 00:48

[Цитировать]

Сироп / Syrup
Страна: США
Студия: Lila 9th Productions, Windward Entertainment
Жанр: драма, мелодрама, комедия
Год выпуска: 2012
Продолжительность: 01:26:51
Перевод: Профессиональный (двухголосый закадровый)
Cубтитры: нет
Оригинальная аудиодорожка: нет
Режиссер: Арам Раппапорт / Aram Rappaport
В ролях: Эмбер Хёрд, Бриттани Сноу, Келлан Латс, Шайло Фернандес, Тоби Хемингуэй, Рэйчел Дрэч, Джош Пэйс, Грег Пол, Майкл Тех, О-Лан Джонс и др.
Описание:
Молодой и амбициозный молодой человек, сотрудник крупной компании, производящей газированные напитки, придумывает блестящий план на миллион американских долларов. План заключается в разработке и продвижении нового напитка, который сделает его значительно богаче и продвинет на самую вершину карьерной лестницы. Однако на пути у осуществления этого великолепного плана есть одно «но» — для его воплощения молодой человек должен объединиться с коллегой по работе и научиться доверять ей, а также помириться со своим боссом, наладив с ним нормальные и доверительные рабочие отношения.


Сэмпл: http://multi-up.com/1040083
Качество видео: HDTV 1080i
Формат видео: TS
Видео: AVC, 1920x1080, (16:9), 25 fps, 6.2 Mbps
Аудио 1: Русский, AC3, 48 kHz, 2 ch, 192 kbps
Аудио 2: Русский, MP2, 48 kHz, 2 ch, 192 kbps
MediaInfo
General
ID : 1 (0x1)
Complete name : C:\Сироп_2011_HDTV 1080i_RU.ts
Format : MPEG-TS
File size : 4.19 GiB
Duration : 1h 26mn
Overall bit rate mode : Variable
Overall bit rate : 6 911 Kbps
Video
ID : 302 (0x12E)
Menu ID : 17102 (0x42CE)
Format : AVC
Format/Info : Advanced Video Codec
Format profile : High@L4.0
Format settings, CABAC : Yes
Format settings, ReFrames : 4 frames
Format settings, GOP : M=4, N=28
Codec ID : 27
Duration : 1h 26mn
Bit rate : 6 182 Kbps
Width : 1 920 pixels
Height : 1 080 pixels
Display aspect ratio : 16:9
Frame rate : 25.000 fps
Standard : Component
Color space : YUV
Chroma subsampling : 4:2:0
Bit depth : 8 bits
Scan type : Interlaced
Scan order : Top Field First
Bits/(Pixel*Frame) : 0.119
Stream size : 3.75 GiB (89%)
Color primaries : BT.709
Transfer characteristics : BT.709
Matrix coefficients : BT.709
Color range : Limited
Audio #1
ID : 402 (0x192)
Menu ID : 17102 (0x42CE)
Format : AC-3
Format/Info : Audio Coding 3
Mode extension : CM (complete main)
Format settings, Endianness : Big
Codec ID : 6
Duration : 1h 26mn
Bit rate mode : Constant
Bit rate : 192 Kbps
Channel(s) : 2 channels
Channel positions : Front: L R
Sampling rate : 48.0 KHz
Bit depth : 16 bits
Compression mode : Lossy
Delay relative to video : -80ms
Stream size : 119 MiB (3%)
Language : Russian
Audio #2
ID : 403 (0x193)
Menu ID : 17102 (0x42CE)
Format : MPEG Audio
Format version : Version 1
Format profile : Layer 2
Codec ID : 3
Duration : 1h 26mn
Bit rate mode : Constant
Bit rate : 192 Kbps
Channel(s) : 2 channels
Sampling rate : 48.0 KHz
Compression mode : Lossy
Delay relative to video : -80ms
Stream size : 119 MiB (3%)
Language : Russian
Скриншот c названием фильма Скриншоты
Скачать

Скачать торрент!

Как скачивать? · Что такое торрент? · Рейтинг и ограничения

Сайт не распространяет и не хранит электронные версии произведений, а лишь предоставляет доступ к создаваемому пользователями каталогу ссылок на торрент-файлы, которые содержат только списки хеш-сумм

[Профиль] [ЛС]
Показать сообщения:    
Ответить на тему

Текущее время: Сегодня 16:12

Часовой пояс: GMT + 4



Вы не можете начинать темы
Вы не можете отвечать на сообщения
Вы не можете редактировать свои сообщения
Вы не можете удалять свои сообщения
Вы не можете голосовать в опросах
Вы не можете прикреплять файлы к сообщениям
Вы не можете скачивать файлы