Проклятое место / Lost Place (Торстен Клайн / Thorsten Klein) [2013, Германия, ужасы, триллер, детектив, HDTV 1080i] MVO

Ответить на тему
 
Автор Сообщение

user ®

Стаж: 7 лет 7 месяцев

Сообщений: 20008

Пост Пост: #1 от 26-Мар-2015 00:48

[Цитировать]

Проклятое место / Lost Place Страна: Германия
Жанр: ужасы, триллер, детектив
Год выпуска: 2013
Продолжительность: 01:37:01
Перевод: Профессиональный (многоголосый закадровый)
Cубтитры: нет
Режиссер: Торстен Клайн / Thorsten Klein
В ролях: Франсуа Геск, Ютта-Мерле Бёрнсен, Йозефина Пройсс, Пит Буковски, Анатоль Таубман, Бьорн Бугри, Георг Каммерер, Рике Экерман
Описание: Четверо подростков отправляются на заброшенную военную базу, где некогда проводились эксперименты с климатическим оружием. Они считают происходящее занятным приключением, но с ними начинают происходить странные и страшные вещи…
Сэмпл: http://rusfolder.com/43293955

Тип релиза: HDTV 1080i
Контейнер: TS
Видео: AVC/H.264, 1920x1080 (16:9), 6232 Кбит/сек, 25.000 fps
Аудио: русский, MP2, 2ch, 48,0 КГц, 192 Кбит/сек
MediaInfo
Общее
Идентификатор : 1 (0x1)
Полное имя : F:\раздачи\Проклятое место.ts
Формат : MPEG-TS
Размер файла : 4,58 Гбайт
Продолжительность : 1 ч. 37 м.
Режим общего битрейта : Переменный
Общий поток : 6760 Кбит/сек
Максимальный общий битрейт : 35,5 Мбит/сек
Видео
Идентификатор : 4113 (0x1011)
Идентификатор меню : 1 (0x1)
Формат : AVC
Формат/Информация : Advanced Video Codec
Профиль формата : Main@L4.0
Параметр CABAC формата : Да
Параметр ReFrames формата : 3 кадра
Идентификатор кодека : 27
Продолжительность : 1 ч. 37 м.
Вид битрейта : Переменный
Битрейт : 6232 Кбит/сек
Максимальный битрейт : 40,0 Мбит/сек
Ширина : 1920 пикселей
Высота : 1080 пикселей
Соотношение сторон : 16:9
Частота кадров : 25,000 кадров/сек
Стандарт вещания : Component
Цветовое пространство : YUV
Субдискретизация насыщенности : 4:2:0
Битовая глубина : 8 бит
Тип развёртки : Чересстрочная
Порядок развёртки : Верхнее поле первое
Бит/(Пиксели*Кадры) : 0.120
Размер потока : 4,22 Гбайт (92%)
colour_range : Limited
Аудио
Идентификатор : 4352 (0x1100)
Идентификатор меню : 1 (0x1)
Формат : MPEG Audio
Версия формата : Version 1
Профиль формата : Layer 2
Идентификатор кодека : 4
Продолжительность : 1 ч. 37 м.
Вид битрейта : Постоянный
Битрейт : 192 Кбит/сек
Каналы : 2 канала
Частота : 48,0 КГц
Метод сжатия : С потерями
Размер потока : 133 Мбайт (3%)
Язык : Russian
Скриншоты с названием фильма Скриншоты
Скачать

Скачать торрент!

Как скачивать? · Что такое торрент? · Рейтинг и ограничения

Сайт не распространяет и не хранит электронные версии произведений, а лишь предоставляет доступ к создаваемому пользователями каталогу ссылок на торрент-файлы, которые содержат только списки хеш-сумм

[Профиль] [ЛС]
Показать сообщения:    
Ответить на тему

Текущее время: Сегодня 17:28

Часовой пояс: GMT + 4



Вы не можете начинать темы
Вы не можете отвечать на сообщения
Вы не можете редактировать свои сообщения
Вы не можете удалять свои сообщения
Вы не можете голосовать в опросах
Вы не можете прикреплять файлы к сообщениям
Вы не можете скачивать файлы