Наркоз / Awake (Джоби Харольд / Joby Harold) [2007, США, триллер, драма, мелодрама, криминал, BDRemux 1080p] Dub (Пифагор) + DVO (Interfilm) + Original Eng + Sub (Rus, Eng)

Ответить на тему
 
Автор Сообщение

user ®

Стаж: 7 лет 7 месяцев

Сообщений: 20008

Пост Пост: #1 от 26-Мар-2015 00:48

[Цитировать]

НАРКОЗ
AWAKE
«When they planned her husband's murder they never thought he'd be the one»
- Страна: США
Жанр: триллер, драма, мелодрама, криминал
Год выпуска: 2007
Продолжительность: 01:24:07-Перевод 1: профессиональный (дублированный)
Перевод 2: любительский (двухголосый закадровый)
Cубтитры: русские, английские
Оригинальная аудиодорожка: английский-Режиссер: Джоби Харольд / Joby Harold
В ролях: Хейден Кристенсен, Джессика Альба, Терренс Ховард, Лена Олин, Кристофер МакДональд, Сэм Робардс, Арлисс Ховард, Фишер Стивенс, Джорджина Чапмэн, Дэвид Харбор-Описание: Клай Бересфорд вынужден лечь под нож. Однако в процессе операции на сердце он неожиданно приходит в себя. Находясь в парализованном состоянии, будучи не в силах пошевелить ни рукой, ни ногой, он, тем не менее, чувствует каждое касание скальпеля к своей плоти…
-СЭМПЛ
Качество: BDRemux 1080p
Контейнер: MKV
Видео: MPEG-4 AVC | 1920x1080 | 23.976 fps | ~24993 kbps | ~0.493 bit/pixel
Аудио 1: DTS | 5.1 ch | 48.0 kHz | 24 bits | 755 kbps | Dub "Пифагор" (DVD R5)
Аудио 2: AC-3 | 5.1 ch | 48.0 kHz | 16 bits | 448 kbps | DVO "Interfilm"
Аудио 3: DTS-HD MA | 5.1 ch | 48.0 kHz | 24 bits | ~3840 kbps (DTS Core: 5.1 ch | 48.0 kHz | 24 bits | 1509 kbps) Eng
Аудио 4: AC-3 | 2 ch | 48.0 kHz | 16 bits | 224 kbps | Commentary by Writer/Director Joby Harold
Субтитры: SRT | UTF-8 | Рус (DVD R5) + Eng + Eng SDH
Главы: есть, именованные

MediaInfo
Format : MatroskaFormat version : Version 4 / Version 2File size : 17.8 GiBDuration : 1h 24mnOverall bit rate mode : VariableOverall bit rate : 30.3 MbpsMovie name : 2007 - AwakeEncoded date : UTC 2015-03-25 11:26:26Writing application : mkvmerge v7.6.0 ('Garden of Dreams') 64bit built on Feb 8 2015 13:04:34Writing library : libebml v1.3.1 + libmatroska v1.4.2Attachements : cover.jpg_STATISTICS_WRITING_APP : mkvmerge v7.6.0 ('Garden of Dreams') 64bit built on Feb 8 2015 13:04:34_STATISTICS_WRITING_DATE_UT : 2015-03-25 11:26:26_STATISTICS_TAGS : BPS DURATION NUMBER_OF_FRAMES NUMBER_OF_BYTESDURATION : 01:22:04.300000000NUMBER_OF_FRAMES : 1604NUMBER_OF_BYTES : 46665
VideoID : 1Format : AVCFormat/Info : Advanced Video CodecFormat profile : High@L4.1Format settings, CABAC : YesFormat settings, ReFrames : 4 framesFormat settings, GOP : M=3, N=12Codec ID : V_MPEG4/ISO/AVCDuration : 1h 24mnBit rate mode : VariableMaximum bit rate : 34.0 MbpsWidth : 1 920 pixelsHeight : 1 080 pixelsDisplay aspect ratio : 16:9Frame rate mode : ConstantFrame rate : 23.976 fpsColor space : YUVChroma subsampling : 4:2:0Bit depth : 8 bitsScan type : ProgressiveLanguage : EnglishDefault : YesForced : NoColor primaries : BT.709Transfer characteristics : BT.709Matrix coefficients : BT.709Color range : Limited_STATISTICS_WRITING_APP : mkvmerge v7.6.0 ('Garden of Dreams') 64bit built on Feb 8 2015 13:04:34_STATISTICS_WRITING_DATE_UT : 2015-03-25 11:26:26_STATISTICS_TAGS : BPS DURATION NUMBER_OF_FRAMES NUMBER_OF_BYTESDURATION : 01:24:06.959000000NUMBER_OF_FRAMES : 121006NUMBER_OF_BYTES : 15767255063
Audio #1ID : 2Format : DTSFormat/Info : Digital Theater SystemsMode : 16Format settings, Endianness : BigCodec ID : A_DTSDuration : 1h 24mnBit rate mode : ConstantBit rate : 755 KbpsChannel(s) : 6 channelsChannel positions : Front: L C R, Side: L R, LFESampling rate : 48.0 KHzBit depth : 24 bitsCompression mode : LossyDelay relative to video : 1s 809msStream size : 454 MiB (2%)Title : Dub "Пифагор" 2007 (DVD R5)Language : RussianDefault : YesForced : No
Audio #2ID : 3Format : AC-3Format/Info : Audio Coding 3Mode extension : CM (complete main)Format settings, Endianness : BigCodec ID : A_AC3Duration : 1h 24mnBit rate mode : ConstantBit rate : 448 KbpsChannel(s) : 6 channelsChannel positions : Front: L C R, Side: L R, LFESampling rate : 48.0 KHzBit depth : 16 bitsCompression mode : LossyDelay relative to video : 1s 918msStream size : 270 MiB (1%)Title : DVO "Interfilm"Language : RussianDefault : NoForced : No
Audio #3ID : 4Format : DTSFormat/Info : Digital Theater SystemsCodec ID : A_DTSDuration : 1h 24mnChannel(s) : 6 channelsSampling rate : 48.0 KHzCompression mode : LossyDelay relative to video : 1s 809msLanguage : EnglishDefault : NoForced : No
Audio #4ID : 5Format : AC-3Format/Info : Audio Coding 3Format profile : Dolby DigitalMode extension : CM (complete main)Format settings, Endianness : BigCodec ID : A_AC3Duration : 1h 24mnBit rate mode : ConstantBit rate : 224 KbpsChannel(s) : 2 channelsChannel positions : Front: L RSampling rate : 48.0 KHzBit depth : 16 bitsCompression mode : LossyStream size : 135 MiB (1%)Title : Commentary by Writer/Director Joby HaroldLanguage : EnglishDefault : NoForced : No_STATISTICS_WRITING_APP : mkvmerge v7.6.0 ('Garden of Dreams') 64bit built on Feb 8 2015 13:04:34_STATISTICS_WRITING_DATE_UT : 2015-03-25 11:26:26_STATISTICS_TAGS : BPS DURATION NUMBER_OF_FRAMES NUMBER_OF_BYTESDURATION : 01:24:06.976000000NUMBER_OF_FRAMES : 157718NUMBER_OF_BYTES : 141315328
Text #1ID : 6Format : UTF-8Codec ID : S_TEXT/UTF8Codec ID/Info : UTF-8 Plain TextTitle : DVD R5Language : RussianDefault : NoForced : No
Text #2ID : 7Format : UTF-8Codec ID : S_TEXT/UTF8Codec ID/Info : UTF-8 Plain TextLanguage : EnglishDefault : NoForced : No
Text #3ID : 8Format : UTF-8Codec ID : S_TEXT/UTF8Codec ID/Info : UTF-8 Plain TextTitle : SDHLanguage : EnglishDefault : NoForced : No
Menu00:00:00.000 : en:1. People Die00:07:48.634 : en:2. The Clock's Ticking00:13:52.039 : en:3. Masquerade00:21:27.119 : en:4. 'Til Death Do Us Part00:29:34.272 : en:5. Anesthesia Awareness00:38:05.741 : en:6. Second Thoughts00:45:17.047 : en:7. Rude Awakening00:54:21.633 : en:8. Something's Wrong00:59:58.511 : en:9. Failure01:08:38.531 : en:10. Consequences01:12:14.538 : en:11. Reflection and Rebirth01:18:40.507 : en:12. End Credits
Скриншоты Награды
Золотая малина, 2008 год
Номинации (2):
Худшая женская роль (Джессика Альба)
Худшая экранная пара — «Джессика Альба и Хейден Кристенсен»
Скачать

Скачать торрент!

Как скачивать? · Что такое торрент? · Рейтинг и ограничения

Сайт не распространяет и не хранит электронные версии произведений, а лишь предоставляет доступ к создаваемому пользователями каталогу ссылок на торрент-файлы, которые содержат только списки хеш-сумм

[Профиль] [ЛС]
Показать сообщения:    
Ответить на тему

Текущее время: Сегодня 02:17

Часовой пояс: GMT + 4



Вы не можете начинать темы
Вы не можете отвечать на сообщения
Вы не можете редактировать свои сообщения
Вы не можете удалять свои сообщения
Вы не можете голосовать в опросах
Вы не можете прикреплять файлы к сообщениям
Вы не можете скачивать файлы