Большой матч: Игра началась / Big Match (Хо Чои / Ho Choi) [2014, Южная Корея, боевик, триллер, комедия, HDRip] MVO (GREEN TEA)

Ответить на тему
 
Автор Сообщение

user ®

Стаж: 13 лет

Сообщений: 15071

Пост Пост: #1 от 25-Мар-2015 15:30

[Цитировать]

Большой матч: Игра началась / Big Match
Страна: Южная Корея
Жанр: боевик, триллер, комедия
Год выпуска: 2014
Продолжительность: 01:52:21
Перевод: Любительский (многоголосый закадровый) GREEN TEA
Cубтитры: нет
Режиссер: Хо Чои / Ho Choi
В ролях: Ли Чжон Чжэ, Син Ха Гюн, Ли Сон Мин, BoA, Eui-sung Kim, До-Сик Парк, Ра Ми Ран, Сон Хо Чжун, Пэ Сон У, Ву-сик Чхве
Описание: Чо Ик Хо — звезда боевых искусств. Он известен не только своей силой и ловкостью, но и чувством юмора, который он использует для выступлений. Но однажды его обвиняют в убийстве. Это подстроено неким человеком по имени Туз. Он геймер, который превращает весь город в большую игровую доску с помощью различных технологий. Туз хочет, чтобы Ик Хо вошел в игру и стал его противником. У бойца не остается другого выбора. Он принимает вызов, ведь на кону жизнь его брата. К тому же надо вернуть себе доброе имя.
Релиз от -
Сэмпл: http://multi-up.com/1040242
Качество видео: HDRip (исх. Big Match 2014.720p.HDRip.H264-Unknown)
Формат видео: AVI
Видео: XviD, 791 kbps, 640 х 272 pixels, 23.976 fps
Аудио: МР3, 128 Kbps, 2 channels, Front: L R, 48.0 KHz

MediaInfo
General
Complete name : D:\Big.Match.2014.HDRip.745mb.avi
Format : AVI
Format/Info : Audio Video Interleave
File size : 746 MiB
Duration : 1h 52mn
Overall bit rate : 928 Kbps
Writing application : VirtualDubMod 1.5.10.3 | www.virtualdub-fr.org || (build 2550/release)
Writing library : VirtualDubMod build 2550/release
Video
ID : 0
Format : MPEG-4 Visual
Format profile : Advanced Simple@L5
Format settings, BVOP : 1
Format settings, QPel : No
Format settings, GMC : No warppoints
Format settings, Matrix : Custom
Codec ID : XVID
Codec ID/Hint : XviD
Duration : 1h 52mn
Bit rate : 791 Kbps
Width : 640 pixels
Height : 272 pixels
Display aspect ratio : 2.35:1
Frame rate : 23.976 fps
Color space : YUV
Chroma subsampling : 4:2:0
Bit depth : 8 bits
Scan type : Progressive
Compression mode : Lossy
Bits/(Pixel*Frame) : 0.190
Stream size : 636 MiB (85%)
Writing library : XviD 73
Audio
ID : 1
Format : MPEG Audio
Format version : Version 1
Format profile : Layer 3
Codec ID : 55
Codec ID/Hint : MP3
Duration : 1h 52mn
Bit rate mode : Constant
Bit rate : 128 Kbps
Channel(s) : 2 channels
Sampling rate : 48.0 KHz
Compression mode : Lossy
Stream size : 103 MiB (14%)
Alignment : Aligned on interleaves
Interleave, duration : 42 ms (1.00 video frame)
Interleave, preload duration : 504 ms
Writing library : LAME3.99.5ЄЄЄЄЄЄЄЄЄЄ
Скриншот c названием фильма Скриншоты
Скачать

Скачать торрент! Большой матч: Игра началась / Big Match (Хо Чои / Ho Choi) [2014, Южная Корея, боевик, триллер, комедия, HDRip] MVO (GREEN TEA)

Как скачивать? · Что такое торрент? · Рейтинг и ограничения

Сайт не распространяет и не хранит электронные версии произведений, а лишь предоставляет доступ к создаваемому пользователями каталогу ссылок на торрент-файлы, которые содержат только списки хеш-сумм

[Профиль] [ЛС]
Показать сообщения:    
Ответить на тему

Текущее время: Сегодня 20:38

Часовой пояс: GMT + 4



Вы не можете начинать темы
Вы не можете отвечать на сообщения
Вы не можете редактировать свои сообщения
Вы не можете удалять свои сообщения
Вы не можете голосовать в опросах
Вы не можете прикреплять файлы к сообщениям
Вы не можете скачивать файлы