Время сумасшедших влюблённых / Zamaana Deewana (Рамеш Сиппи / Ramesh Sippy) [1995, Индия, Боевик, мелодрама, комедия, DVDRip] MVO (Формат АВ) + Sub Rus

Ответить на тему
 
Автор Сообщение

user ®

Стаж: 12 лет

Сообщений: 15092

Пост Пост: #1 от 25-Мар-2015 15:30

[Цитировать]

Время сумасшедших влюблённых / Zamaana Deewana
Страна: Индия
Жанр: Боевик, мелодрама, комедия
Год выпуска: 1995
Продолжительность: 02:56:46
Перевод: Профессиональный (многоголосый закадровый) Формат АВ
Cубтитры: русские (на неозвученных эпизодах)
Режиссер: Рамеш Сиппи / Ramesh Sippy
В ролях: Шахрукх Кхан, Джитендра, Шатругхан Синха, Равина Тандон, Анупам Кхер, Тинну Ананд, Киран Джунея, Бина, Ашиф Шейх, Нилима Азим, Судхир, Ганшьям Рохера, Прем Чопра
Описание: Сурадж и Пала по жизни были друзья-не-разлей-вода. И только грязные проделки интригана Сундара возвели между друзьями стену непонимания. А после того как Лалу удалось убедить в том, что якобы Сурадж виновен в смерти жены Лалы, то лучшие друзья превратились в кровных врагов. Да таких врагов, что стычки двух преступных кланов потрясли всех в округе. Для того, чтобы стабилизировать обстановку в регионе, полиция штата пошла на необыкновенный шаг. Они решили случайно познакомить и влюбить друг в друга детей двух кровных врагов — любимого сына Сураджа Рахула и элегантную дочь Лала Прию. Через какие только приключения и испытания пришлось пройти молодой влюбленной паре Вы узнаете, только просмотрев наш фильм до конца.
Доп. информация: Исходник DVD-9 (СПАСИБО! Th4K)
Перевод субтитров: vik555,margosha (Спасибо!)
Сэмпл: http://multi-up.com/1040235
Качество видео: DVDRip
Формат видео: AVI
Видео: XviD build 50, 688x352 (1.95:1), 23.976 fps, 1047 kbps avg
Аудио: MPEG Layer 3, 48 kHz, 2/0 (L,R) ch, 128.00 kbps avg
MediaInfo
General
Complete name : D:\Vremya.sumasshedshih.vlublennyh.1995.DVDRip-Dego\Vremya.sumasshedshih.vlublennyh.1995.DVDRip-Dego.avi
Format : AVI
Format/Info : Audio Video Interleave
File size : 1.46 GiB
Duration : 2h 56mn
Overall bit rate : 1 185 Kbps
Writing application : VirtualDubMod 1.5.10.2 (build 2540/release)
Writing library : VirtualDubMod build 2540/release
Video
ID : 0
Format : MPEG-4 Visual
Format profile : AdvancedSimple@L5
Format settings, BVOP : Yes
Format settings, QPel : No
Format settings, GMC : No warppoints
Format settings, Matrix : Custom
Codec ID : XVID
Codec ID/Hint : XviD
Duration : 2h 56mn
Bit rate : 1 047 Kbps
Width : 688 pixels
Height : 352 pixels
Display aspect ratio : 1.955
Frame rate : 23.976 fps
Resolution : 24 bits
Colorimetry : 4:2:0
Scan type : Progressive
Bits/(Pixel*Frame) : 0.180
Stream size : 1.29 GiB (88%)
Writing library : XviD 1.2.1 (UTC 2008-12-04)
Audio
ID : 1
Format : MPEG Audio
Format version : Version 1
Format profile : Layer 3
Codec ID : 55
Codec ID/Hint : MP3
Duration : 2h 56mn
Bit rate mode : Constant
Bit rate : 128 Kbps
Channel(s) : 2 channels
Sampling rate : 48.0 KHz
Resolution : 16 bits
Stream size : 162 MiB (11%)
Alignment : Aligned on interleaves
Interleave, duration : 42 ms (1.00 video frame)
Interleave, preload duration : 504 ms
Writing library : LAME3.98r
Encoding settings : -m j -V 4 -q 2 -lowpass 17 -b 128
Скриншоты Сравнения
[url=http://***/forum/viewtopic.php?t=785803]http://***/forum/viewtopic.php?t=785803[/url] => http://screenshotcomparison.com/comparison/118209/picture:3
перевод тотже.
Скачать

Скачать торрент! Время сумасшедших влюблённых / Zamaana Deewana (Рамеш Сиппи / Ramesh Sippy) [1995, Индия, Боевик, мелодрама, комедия, DVDRip] MVO (Формат АВ) + Sub Rus

Как скачивать? · Что такое торрент? · Рейтинг и ограничения

Сайт не распространяет и не хранит электронные версии произведений, а лишь предоставляет доступ к создаваемому пользователями каталогу ссылок на торрент-файлы, которые содержат только списки хеш-сумм

[Профиль] [ЛС]
Показать сообщения:    
Ответить на тему

Текущее время: Сегодня 11:12

Часовой пояс: GMT + 4



Вы не можете начинать темы
Вы не можете отвечать на сообщения
Вы не можете редактировать свои сообщения
Вы не можете удалять свои сообщения
Вы не можете голосовать в опросах
Вы не можете прикреплять файлы к сообщениям
Вы не можете скачивать файлы