Шагал – Малевич (Александр Митта) [2013, биография, история, HDTVRip]

Ответить на тему
 
Автор Сообщение

user ®

Стаж: 7 лет 7 месяцев

Сообщений: 20008

Пост Пост: #1 от 25-Мар-2015 09:18

[Цитировать]

Шагал – Малевич
Год выпуска: 2013
Страна: Россия
Жанр: биография, история
Продолжительность: 01:56:31
Режиссер: Александр Митта
В ролях: Леонид Бичевин (Марк Шагал), Кристина Шнайдерман (Белла), Анатолий Белый (Малевич), Семён Шкаликов (Наум), Дмитрий Астрахан (Ребе Айзик), Яша Левда (Лева), Алексей Овсянников (Железняк), Дарья Пашкова (Фейга-Ита), Филипп Жлоба (Савелий), Олег Жаков, Станислав Демин (ученик Шагала, в титрах не указан), Светлана Цвиченко (Вера Ермолаева)-Мировая премьера: 4 октября 2014-Описание: Когда вихри революции стирают с лица земли провинциальный уклад еврейского Витебска и последние становятся первыми, только удивительная вера и безусловная преданность мужу позволяют Белле Шагал спасти своего гениального Марка.
История самозабвенной любви Беллы Шагал, супруги великого художника Марка Шагала протекает на фоне исторической дуэли ее мужа со своим гениальным современником-антиподом Казимиром Малевичем и другой, еще более отчаянной схватки с другом детства, а ныне красным комиссаром Наумом за сердце Беллы.
-[url=http://***/forum/viewtopic.php?t=1677970] [/url]Рейтинг
kinopoisk.ru: 6.327 (788)
imdb.com: 6.00 (33)
-Качество: HDTVRip (Исходник: HDTV 1080i)
Формат: AVI //SAMPLE//
Видео: 704x384 (1.83:1), 25 fps, XviD build 66 ~2226 kbps avg, 0.33 bit/pixel
Аудио: 48 kHz, AC3 Dolby Digital, 3/2 (L,C,R,l,r) + LFE ch, ~448 kbps

MediaInfo
Общее
Полное имя : F:\Video\AVI\Films\Shagal.Malevich.2013.RUS.HDTVRip.XviD.AC3.-AllFilms.avi
Формат : AVI
Формат/Информация : Audio Video Interleave
Профиль формата : OpenDML
Размер файла : 2,18 Гбайт
Продолжительность : 1 ч. 56 м.
Общий поток : 2681 Кбит/сек
Название фильма : Шагал - Малевич (2013)
Режиссёр : Shevon (HDTV 1080i)
Программа кодирования : VirtualDubMod 1.5.10.3 | www.virtualdub-fr.org || (build 2550/release)
Правообладатель : AllFilms (***)
Видео
Идентификатор : 0
Формат : MPEG-4 Visual
Профиль формата : Advanced Simple@L5
Параметр BVOP формата : 1
Параметр QPel формата : Нет
Параметр GMC формата : Без точки перехода
Параметр матрицы формата : Выборочная
Идентификатор кодека : XVID
Идентификатор кодека/Подсказка : XviD
Продолжительность : 1 ч. 56 м.
Битрейт : 2221 Кбит/сек
Ширина : 704 пикселя
Высота : 384 пикселя
Соотношение сторон : 1,85:1
Частота кадров : 25,000 кадров/сек
Цветовое пространство : YUV
Субдискретизация насыщенности : 4:2:0
Битовая глубина : 8 бит
Тип развёртки : Прогрессивная
Метод сжатия : С потерями
Бит/(Пиксели*Кадры) : 0.329
Размер потока : 1,81 Гбайт (83%)
Библиотека кодирования : XviD 66
Аудио
Идентификатор : 1
Формат : AC-3
Формат/Информация : Audio Coding 3
Расширение режима : CM (complete main)
Параметр Endianness формата : Big
Идентификатор кодека : 2000
Продолжительность : 1 ч. 56 м.
Вид битрейта : Постоянный
Битрейт : 448 Кбит/сек
Каналы : 6 каналов
Расположение каналов : Front: L C R, Side: L R, LFE
Частота : 48,0 КГц
Битовая глубина : 16 бит
Метод сжатия : С потерями
Размер потока : 373 Мбайт (17%)
Выравнивание : Разделение по промежуткам
Продолжительность промежутка : 40 мс. (1,00 видеокадр)
Время предзагрузки промежутка : 500 мс.
Скриншоты
-
Знаете ли Вы, что...

  • Предметы интерьера столетней давности воссоздавались в павильоне «Ленфильма».
  • Для воссоздания Витебска 20-х годов прошлого столетия постановочная группа искусственно состарила две городские улицы - Суворова и Крылова. В районе торгового центра «Беларусь» построили квартал еврейской бедноты. Затем этот бутафорский район с деревянными домами, рынком и синагогой сожгли - во время съемок пожара.
  • Рабочие названия картины: «Комиссар Шагал и гражданин Малевич», «Миракль о Шагале».
  • На роль Малевича пробовались 10 актеров.
  • Роль комиссара досталась Семену Шкаликову. На эту же роль рассматривалась кандидатура Данилы Козловского.
  • Фильм снимался под присмотром внучки Шагала Мерет Мейер-Грабер. Александр Митта утверждал с ней черновой монтаж картины. Также по просьбе Мерет, из финальных титров фильма были убраны фотоизображения работ Шагала и Малевича.
  • Копии полотен Шагала и Малевича в натуральную величину изготовили витебские художники Александр Вышка, Александр Малей, Виктор Шилко, Алексей Кравченко и главный художник фильма Эдуард Галкин. Они использовались для съемок демонстрации в честь годовщины Октябрьской революции и других моментов.
    -
Скачать

Скачать торрент!

Как скачивать? · Что такое торрент? · Рейтинг и ограничения

Сайт не распространяет и не хранит электронные версии произведений, а лишь предоставляет доступ к создаваемому пользователями каталогу ссылок на торрент-файлы, которые содержат только списки хеш-сумм

[Профиль] [ЛС]
Показать сообщения:    
Ответить на тему

Текущее время: Сегодня 22:34

Часовой пояс: GMT + 4



Вы не можете начинать темы
Вы не можете отвечать на сообщения
Вы не можете редактировать свои сообщения
Вы не можете удалять свои сообщения
Вы не можете голосовать в опросах
Вы не можете прикреплять файлы к сообщениям
Вы не можете скачивать файлы