Шальная карта / Wild Card (Саймон Уэст / Simon West) [2015, США, боевик, триллер, драма, криминал, BDRip 720p] MVO (Paradox) + VO (Яроцкий Михаил) + Sub Rus, Eng + Original Eng

Ответить на тему
 
Автор Сообщение

user ®

Стаж: 7 лет 7 месяцев

Сообщений: 20008

Пост Пост: #1 от 25-Мар-2015 00:00

[Цитировать]

Шальная карта / Wild Card
Страна: США
Студия: Cinema Seven Productions
Жанр: боевик, триллер, драма, криминал
Год выпуска: 2015
Продолжительность: 01:32:21
Перевод: Любительский (многоголосый закадровый) Paradox
Перевод 2: Одноголосый закадровый Яроцкий Михаил
Cубтитры: Rus, Eng
Оригинальная аудиодорожка: английский
Режиссер: Саймон Уэст / Simon West
В ролях: Джейсон Стэйтем, Майкл Ангарано, Майло Вентимилья, Доминик Гарсиа-Лоридо, Энн Хеч, София Вергара, Макс Казелла, Джейсон Александер, Хоуп Дэвис, Стэнли Туччи
Описание: Главный герой — бывший военный Ник Эскаланте — работает в Лас-Вегасе охранником, мечтает накопить денег и навсегда уехать в Венецию. Но Ник соглашается помочь проститутке Холли, постоянно подвергающейся насилию со стороны сына крупного гангстера, из-за чего отъезд в Венецию затягивается.
Доп. информация: присутствует ненормативная лексика.

Тип релиза: BDRip 720p
Контейнер: MKV
Видео: MPEG-4 AVC, 6145 Кбит/с, 1280x534, 23,976 fps
Аудио: Rus, AC3, 384 kb/s (6 ch), 48 kHz - Paradox
Аудио 2: Rus, DTS, 1510 kb/s (6 ch), 48 kHz - Яроцкий
Аудио 3: Eng, DTS, 1510 kb/s (6 ch), 48 kHz
Формат субтитров: softsub (SRT)
MediaInfo
x264 info: frame I:1281 Avg QP:14.61 size:104532
x264 info: frame P:26710 Avg QP:15.95 size: 44462
x264 info: frame B:104849 Avg QP:16.45 size: 29240
x264 info: consecutive B-frames: 1.9% 1.4% 5.6% 14.7% 15.7% 51.2% 4.8% 1.9% 2.8%
Format : Matroska
Format version : Version 4 / Version 2
File size : 6.28 GiB
Duration : 1h 32mn
Overall bit rate : 9 740 Kbps
Movie name : Шальная карта. (Tonik)
Encoded date : UTC 2015-03-23 16:25:58
Writing application : mkvmerge v7.1.0 ('Good Love') 64bit built on Jul 27 2014 13:06:55
Writing library : libebml v1.3.0 + libmatroska v1.4.1
_STATISTICS_WRITING_APP : mkvmerge v7.1.0 ('Good Love') 64bit built on Jul 27 2014 13:06:55
_STATISTICS_WRITING_DATE_UTC : 2015-03-23 16:25:58
_STATISTICS_TAGS : BPS DURATION NUMBER_OF_FRAMES NUMBER_OF_BYTES
DURATION : 01:32:19.648000000
NUMBER_OF_FRAMES : 173114
NUMBER_OF_BYTES : 265903104
Video
ID : 1
Format : AVC
Format/Info : Advanced Video Codec
Format profile : High@L4.1
Format settings, CABAC : Yes
Format settings, ReFrames : 12 frames
Codec ID : V_MPEG4/ISO/AVC
Duration : 1h 32mn
Bit rate : 6 145 Kbps
Width : 1 280 pixels
Height : 534 pixels
Display aspect ratio : 2.40:1
Frame rate mode : Constant
Frame rate : 23.976 fps
Color space : YUV
Chroma subsampling : 4:2:0
Bit depth : 8 bits
Scan type : Progressive
Bits/(Pixel*Frame) : 0.375
Stream size : 3.96 GiB (63%)
Writing library : x264 core 142 r2431+42 c69a006 tMod [8-bit@all X86_64]
Encoding settings : cabac=1 / ref=12 / deblock=1:-3:-3 / analyse=0x3:0x133 / me=umh / subme=9 / psy=1 / fade_compensate=0.00 / psy_rd=1.05:0.00 / mixed_ref=1 / me_range=24 / chroma_me=1 / trellis=2 / 8x8dct=1 / cqm=0 / deadzone=21,11 / fast_pskip=0 / chroma_qp_offset=-2 / threads=24 / lookahead_threads=4 / sliced_threads=0 / nr=0 / decimate=0 / interlaced=0 / bluray_compat=0 / constrained_intra=0 / fgo=0 / bframes=8 / b_pyramid=2 / b_adapt=2 / b_bias=0 / direct=3 / weightb=1 / open_gop=0 / weightp=2 / keyint=250 / keyint_min=23 / scenecut=40 / intra_refresh=0 / rc=crf / mbtree=0 / crf=16.8000 / qcomp=0.70 / qpmin=0:0:0 / qpmax=69:69:69 / qpstep=4 / ip_ratio=1.20 / pb_ratio=1.10 / aq=4:0.70 / aq-sensitivity=10.00 / aq-factor=1.00:1.00:1.00 / aq2=0 / aq3=0
Language : English
Default : Yes
Forced : No
_STATISTICS_WRITING_APP : mkvmerge v7.1.0 ('Good Love') 64bit built on Jul 27 2014 13:06:55
_STATISTICS_WRITING_DATE_UTC : 2015-03-23 16:25:58
_STATISTICS_TAGS : BPS DURATION NUMBER_OF_FRAMES NUMBER_OF_BYTES
DURATION : 01:32:20.535000000
NUMBER_OF_FRAMES : 132840
NUMBER_OF_BYTES : 4387230061
Audio #1
ID : 2
Format : AC-3
Format/Info : Audio Coding 3
Mode extension : CM (complete main)
Format settings, Endianness : Big
Codec ID : A_AC3
Duration : 1h 32mn
Bit rate mode : Constant
Bit rate : 384 Kbps
Channel(s) : 6 channels
Channel positions : Front: L C R, Side: L R, LFE
Sampling rate : 48.0 KHz
Bit depth : 16 bits
Compression mode : Lossy
Stream size : 254 MiB (4%)
Title : Paradox
Language : Russian
Default : Yes
Forced : No
Audio #2
ID : 3
Format : DTS
Format/Info : Digital Theater Systems
Mode : 16
Format settings, Endianness : Big
Codec ID : A_DTS
Duration : 1h 32mn
Bit rate mode : Constant
Bit rate : 1 509 Kbps
Channel(s) : 6 channels
Channel positions : Front: L C R, Side: L R, LFE
Sampling rate : 48.0 KHz
Bit depth : 24 bits
Compression mode : Lossy
Stream size : 997 MiB (15%)
Title : Яроцкий
Language : Russian
Default : No
Forced : No
Audio #3
ID : 4
Format : DTS
Format/Info : Digital Theater Systems
Mode : 16
Format settings, Endianness : Big
Codec ID : A_DTS
Duration : 1h 32mn
Bit rate mode : Constant
Bit rate : 1 509 Kbps
Channel(s) : 6 channels
Channel positions : Front: L C R, Side: L R, LFE
Sampling rate : 48.0 KHz
Bit depth : 24 bits
Compression mode : Lossy
Stream size : 997 MiB (15%)
Language : English
Default : No
Forced : No
Text #1
ID : 5
Format : UTF-8
Codec ID : S_TEXT/UTF8
Codec ID/Info : UTF-8 Plain Text
Language : Russian
Default : No
Forced : No
Text #2
ID : 6
Format : UTF-8
Codec ID : S_TEXT/UTF8
Codec ID/Info : UTF-8 Plain Text
Language : English
Default : No
Forced : No
Text #3
ID : 7
Format : UTF-8
Codec ID : S_TEXT/UTF8
Codec ID/Info : UTF-8 Plain Text
Title : SDH
Language : English
Default : No
Forced : No
Menu
00:00:00.000 : en:00:00:00.000
00:06:08.658 : en:00:06:08.658
00:14:12.350 : en:00:14:12.350
00:23:21.816 : en:00:23:21.816
00:27:53.296 : en:00:27:53.296
00:33:44.814 : en:00:33:44.814
00:39:56.893 : en:00:39:56.893
00:45:03.532 : en:00:45:03.532
00:49:49.193 : en:00:49:49.193
00:56:36.391 : en:00:56:36.391
01:00:54.317 : en:01:00:54.317
01:05:01.105 : en:01:05:01.105
01:10:29.557 : en:01:10:29.557
01:16:24.787 : en:01:16:24.787
01:21:46.275 : en:01:21:46.275
01:25:39.257 : en:01:25:39.257
Скриншоты
Скачать

Скачать торрент!

Как скачивать? · Что такое торрент? · Рейтинг и ограничения

Сайт не распространяет и не хранит электронные версии произведений, а лишь предоставляет доступ к создаваемому пользователями каталогу ссылок на торрент-файлы, которые содержат только списки хеш-сумм

[Профиль] [ЛС]
Показать сообщения:    
Ответить на тему

Текущее время: Сегодня 03:51

Часовой пояс: GMT + 4



Вы не можете начинать темы
Вы не можете отвечать на сообщения
Вы не можете редактировать свои сообщения
Вы не можете удалять свои сообщения
Вы не можете голосовать в опросах
Вы не можете прикреплять файлы к сообщениям
Вы не можете скачивать файлы