Все то, о чем мы так долго мечтали (Рудольф Фрунтов) [1997, Боевик, мелодрама, DVDRip]

Ответить на тему
 
Автор Сообщение

user ®

Стаж: 7 лет 7 месяцев

Сообщений: 20008

Пост Пост: #1 от 25-Мар-2015 00:00

[Цитировать]

Все то, о чем мы так долго мечтали- Год выпуска: 1997
Выпущено: Россия / Роскомкино
Жанр: боевик, мелодрама
Продолжительность: 01:39:03-Режиссёр:
Рудольф Фрунтов-В ролях:
Николай Добрынин, Анна Терехова, Всеволод Шиловский, Альберт Филозов, Александр Песков, Нина Агапова, Георгий Корольчук, Сергей Угаров, Игорь Регнер, Наталья Позднякова-Описание:
Молодой человек, мечтающий любой ценой добиться удачи, оказывается втянутым в криминальную ситуацию. Пройдя буквально через круги ада, познав горечь предательства, унижений и смертельной опасности, он обретает в итоге веру, любовь и надежду на счастье.-Релиз групп [url=http://***/forum/viewtopic.php?t=1677970] [/url] | | КиноПоиск | Сэмпл |-Качество: DVDRip [[url=http://***/forum/viewtopic.php?t=2771828]DVD5[/url]]
Формат: AVI
Видео: 656x512 (1.28:1), 25 fps, XviD build 73 ~1902 kbps avg, 0.23 bit/pixel
Аудио: 48 kHz, AC3 Dolby Digital, 2/0 (L,R) ch, ~192.00 kbps avg
-Скриншоты MediaInfo
General
Complete name                            : D:\Vse_to_o_4em_my_tak_dolgo_me4tali_1997_DVDRip_by_Dalemake.avi
Format                                   : AVI
Format/Info                              : Audio Video Interleave
File size                                : 1.46 GiB
Duration                                 : 1h 39mn
Overall bit rate                         : 2 104 Kbps
Writing application                      : VirtualDubMod 1.5.10.3 | www.virtualdub-fr.org || (build 2550/release)
Writing library                          : VirtualDubMod build 2550/release
Video
ID                                       : 0
Format                                   : MPEG-4 Visual
Format profile                           : Advanced Simple@L5
Format settings, BVOP                    : 2
Format settings, QPel                    : No
Format settings, GMC                     : No warppoints
Format settings, Matrix                  : Custom
Codec ID                                 : XVID
Codec ID/Hint                            : XviD
Duration                                 : 1h 39mn
Bit rate                                 : 1 903 Kbps
Width                                    : 656 pixels
Height                                   : 512 pixels
Display aspect ratio                     : 1.281
Frame rate                               : 25.000 fps
Color space                              : YUV
Chroma subsampling                       : 4:2:0
Bit depth                                : 8 bits
Scan type                                : Progressive
Compression mode                         : Lossy
Bits/(Pixel*Frame)                       : 0.227
Stream size                              : 1.32 GiB (90%)
Writing library                          : XviD 73
Audio
ID                                       : 1
Format                                   : AC-3
Format/Info                              : Audio Coding 3
Mode extension                           : CM (complete main)
Format settings, Endianness              : Big
Codec ID                                 : 2000
Duration                                 : 1h 39mn[hr]
Bit rate mode                            : Constant
Bit rate                                 : 192 Kbps
Channel(s)                               : 2 channels
Channel positions                        : Front: L R
Sampling rate                            : 48.0 KHz
Bit depth                                : 16 bits
Compression mode                         : Lossy
Stream size                              : 136 MiB (9%)
Alignment                                : Split accross interleaves
Interleave, duration                     : 40 ms (1.00 video frame)
Interleave, preload duration             : 500 ms
Сравнение
[url=http://***/forum/viewtopic.php?t=2119569]http://***/forum/viewtopic.php?t=2119569[/url]
http://screenshotcomparison.com/comparison/118147
Цитата:
Format settings, BVOP : No
-[url=http://***/forum/viewtopic.php?t=1043068]http://***/forum/viewtopic.php?t=1043068[/url]
http://screenshotcomparison.com/comparison/118148
Цитата:
Format settings, BVOP : No
-
Скачать

Скачать торрент!

Как скачивать? · Что такое торрент? · Рейтинг и ограничения

Сайт не распространяет и не хранит электронные версии произведений, а лишь предоставляет доступ к создаваемому пользователями каталогу ссылок на торрент-файлы, которые содержат только списки хеш-сумм

[Профиль] [ЛС]
Показать сообщения:    
Ответить на тему

Текущее время: Сегодня 07:06

Часовой пояс: GMT + 4



Вы не можете начинать темы
Вы не можете отвечать на сообщения
Вы не можете редактировать свои сообщения
Вы не можете удалять свои сообщения
Вы не можете голосовать в опросах
Вы не можете прикреплять файлы к сообщениям
Вы не можете скачивать файлы