Дюба-дюба (2 серии) (Александр Хван) [1992, драма, TVRip]

Ответить на тему
 
Автор Сообщение

user ®

Стаж: 7 лет 7 месяцев

Сообщений: 20008

Пост Пост: #1 от 24-Мар-2015 01:33

[Цитировать]

Дюба-дюба (2 серии)
Жанр: драма
Год выпуска: 1992
Продолжительность: 02:11:16 (01:07:09+01:04:07)
-
Режиссёр: Александр Хван
В ролях: Олег Меньшиков, Анжела Белянская, Александр Негреба, Григорий Константинопольский, Александр Тютин, Виктор Тереля, Владимир Головин, Георгий Тараторкин, Роман Греков, Рамиль Сабитов, Фархад Махмудов, Александр Коданев
-
Описание: Когда-то Андрей жил в провинциальном городке и любил девушку Таню. Теперь, учась во ВГИКе, на сценарном факультете, где ему с другом предстоит стажировка в Америке, он случайно узнаёт, что Таня попала в тюрьму. После консультации у адвоката он понимает, что вытащить Таню можно, только устроив побег, а для этого нужны большие деньги. Решив освободить её любой ценой, Андрей идёт на преступления...
-
Доп. информация: Плавающий кроп - слева.
Награды, номинации, фестивали:
"Ника" - 92 за лучшую работу звукооператора;
Номинация на "Нику" - 92 по категориям: "Лучшая сценарная работа", "Лучшая мужская роль";
Премия за режиссуру на фестивале "Киношок" – 92;
"Золотой Овен" - 93 сценаристам А. Саморядову и П. Луцику.
-
Сэмпл: http://sendfile.su/1099719
-
Качество видео: TVRip (Исходник от Valeronius)
Формат видео: AVI
Видео 1: 576x432 (1.33:1), 25 fps, XviD build 65 ~1412 kbps avg, 0.23 bit/pixel
Аудио 1: 48 kHz, MPEG Layer 3, 2 ch, ~128.00 kbps avg-Видео 2: 576x432 (1.33:1), 25 fps, XviD build 65 ~1484 kbps avg, 0.24 bit/pixel
Аудио 2: 48 kHz, MPEG Layer 3, 2 ch, ~128.00 kbps avg
MediaInfo
General
Complete name : C:\Users\ALEX\Downloads\Фильмы\Дюба-дюба.2 серии.1992.TVRip.XviD.MPEG Audio\Дюба-дюба.01 серия.1992.TVRip.XviD.MPEG Audio.avi
Format : AVI
Format/Info : Audio Video Interleave
File size : 745 MiB
Duration : 1h 7mn
Overall bit rate : 1 550 Kbps
Writing application : VirtualDubMod 1.5.10.2 (build 2542/release)
Writing library : VirtualDubMod build 2542/release
Video
ID : 0
Format : MPEG-4 Visual
Format profile : Advanced Simple@L5
Format settings, BVOP : 1
Format settings, QPel : No
Format settings, GMC : No warppoints
Format settings, Matrix : Custom
Codec ID : XVID
Codec ID/Hint : XviD
Duration : 1h 7mn
Bit rate : 1 413 Kbps
Width : 576 pixels
Height : 432 pixels
Display aspect ratio : 4:3
Frame rate : 25.000 fps
Color space : YUV
Chroma subsampling : 4:2:0
Bit depth : 8 bits
Scan type : Progressive
Compression mode : Lossy
Bits/(Pixel*Frame) : 0.227
Stream size : 679 MiB (91%)
Writing library : XviD 65
Audio
ID : 1
Format : MPEG Audio
Format version : Version 1
Format profile : Layer 3
Mode : Joint stereo
Mode extension : MS Stereo
Codec ID : 55
Codec ID/Hint : MP3
Duration : 1h 7mn
Bit rate mode : Constant
Bit rate : 128 Kbps
Channel(s) : 2 channels
Sampling rate : 48.0 KHz
Compression mode : Lossy
Stream size : 61.5 MiB (8%)
Alignment : Aligned on interleaves
Interleave, duration : 40 ms (1.00 video frame)
Interleave, preload duration : 504 ms
Writing library : LAME3.99r
Encoding settings : -m j -V 4 -q 2 -lowpass 17 -b 128
-
General
Complete name : C:\Users\ALEX\Downloads\Фильмы\Дюба-дюба.2 серии.1992.TVRip.XviD.MPEG Audio\Дюба-дюба.02 серия.1992.TVRip.XviD.MPEG Audio.avi
Format : AVI
Format/Info : Audio Video Interleave
File size : 744 MiB
Duration : 1h 4mn
Overall bit rate : 1 622 Kbps
Writing application : VirtualDubMod 1.5.10.2 (build 2542/release)
Writing library : VirtualDubMod build 2542/release
Video
ID : 0
Format : MPEG-4 Visual
Format profile : Advanced Simple@L5
Format settings, BVOP : 1
Format settings, QPel : No
Format settings, GMC : No warppoints
Format settings, Matrix : Custom
Codec ID : XVID
Codec ID/Hint : XviD
Duration : 1h 4mn
Bit rate : 1 484 Kbps
Width : 576 pixels
Height : 432 pixels
Display aspect ratio : 4:3
Frame rate : 25.000 fps
Color space : YUV
Chroma subsampling : 4:2:0
Bit depth : 8 bits
Scan type : Progressive
Compression mode : Lossy
Bits/(Pixel*Frame) : 0.239
Stream size : 681 MiB (92%)
Writing library : XviD 65
Audio
ID : 1
Format : MPEG Audio
Format version : Version 1
Format profile : Layer 3
Mode : Joint stereo
Mode extension : MS Stereo
Codec ID : 55
Codec ID/Hint : MP3
Duration : 1h 4mn
Bit rate mode : Constant
Bit rate : 128 Kbps
Channel(s) : 2 channels
Sampling rate : 48.0 KHz
Compression mode : Lossy
Stream size : 58.7 MiB (8%)
Alignment : Aligned on interleaves
Interleave, duration : 40 ms (1.00 video frame)
Interleave, preload duration : 504 ms
Writing library : LAME3.99r
Encoding settings : -m j -V 4 -q 2 -lowpass 17 -b 128
Скриншоты
Скачать

Скачать торрент!

Как скачивать? · Что такое торрент? · Рейтинг и ограничения

Сайт не распространяет и не хранит электронные версии произведений, а лишь предоставляет доступ к создаваемому пользователями каталогу ссылок на торрент-файлы, которые содержат только списки хеш-сумм

[Профиль] [ЛС]
Показать сообщения:    
Ответить на тему

Текущее время: Сегодня 07:48

Часовой пояс: GMT + 4



Вы не можете начинать темы
Вы не можете отвечать на сообщения
Вы не можете редактировать свои сообщения
Вы не можете удалять свои сообщения
Вы не можете голосовать в опросах
Вы не можете прикреплять файлы к сообщениям
Вы не можете скачивать файлы