Элиас и морское сокровище / Elias og jakten pa havets gull (Лисе Осволл / Lise I. Osvoll) [2010, полнометражный мультфильм, DVB] MVO (ВГТРК)

Ответить на тему
 
Автор Сообщение

user ®

Стаж: 13 лет

Сообщений: 15041

Пост Пост: #1 от 22-Мар-2015 22:36

[Цитировать]

Элиас и морское сокровище
Elias og jakten pa havets gull
-Страна: Норвегия
Жанр: полнометражный мультфильм
Продолжительность: 01:11:37
Год выпуска: 2010
Перевод: Профессиональный (многоголосый закадровый) - ВГТРК
Русские субтитры: нет-Режиссёры: Лисе Осволл / Lise I. Osvoll- | Релиз: -Описание: Маленький спасательный катер Элиас и его друзья, команда Уютной бухты, готовятся к началу зимнего сезона ежегодной рыбной ловли. Но в этот раз большой улов им не светит. Оказывается, огромные промышленные траулеры выловили всю рыбу в океане, и для обычных маленьких рыбацких лодочек настали тяжелые времена. Элиас хочет помочь своим друзьям.-Семпл: http://sendfile.su/1099319-Качество: DVB (Канал "Gulli")
Формат: MPG
Видео: 720x576 (4:3) @ 768x576, 25.000 fps, MPEG-2 Video, ~2423 Kbps, 0.234 bits/pixel
Аудио: 48.0 KHz, MPEG-1 Audio layer 2, 2 ch, 192 Kbps
Субтитры: отсутствуют
MediaInfo
GeneralComplete name : Elias og jakten pa havets gull 2010 Gulli MVO VGTRK.mpgFormat : MPEG-PSFile size : 1.33 GiBDuration : 1h 11mnOverall bit rate mode : VariableOverall bit rate : 2 668 Kbps
VideoID : 224 (0xE0)Format : MPEG VideoFormat version : Version 2Format profile : Main@MainFormat settings, BVOP : YesFormat settings, Matrix : CustomFormat settings, GOP : VariableFormat settings, picture structure : FrameDuration : 1h 11mnBit rate mode : VariableBit rate : 2 423 KbpsMaximum bit rate : 15.0 MbpsWidth : 720 pixelsHeight : 576 pixelsDisplay aspect ratio : 4:3Frame rate : 25.000 fpsStandard : PALColor space : YUVChroma subsampling : 4:2:0Bit depth : 8 bitsScan type : InterlacedScan order : Top Field FirstCompression mode : LossyBits/(Pixel*Frame) : 0.234Time code of first frame : 00:00:00:00Time code source : Group of pictures headerGOP, Open/Closed : OpenStream size : 1.21 GiB (91%)GOP, Open/Closed of first frame : Closed
AudioID : 192 (0xC0)Format : MPEG AudioFormat version : Version 1Format profile : Layer 2Duration : 1h 11mnBit rate mode : ConstantBit rate : 192 KbpsChannel(s) : 2 channelsSampling rate : 48.0 KHzCompression mode : LossyStream size : 98.4 MiB (7%)
Скриншоты
Скачать

Скачать торрент! Элиас и морское сокровище / Elias og jakten pa havets gull (Лисе Осволл / Lise I. Osvoll) [2010, полнометражный мультфильм, DVB] MVO (ВГТРК)

Как скачивать? · Что такое торрент? · Рейтинг и ограничения

Сайт не распространяет и не хранит электронные версии произведений, а лишь предоставляет доступ к создаваемому пользователями каталогу ссылок на торрент-файлы, которые содержат только списки хеш-сумм

[Профиль] [ЛС]
Показать сообщения:    
Ответить на тему

Текущее время: Сегодня 19:11

Часовой пояс: GMT + 4



Вы не можете начинать темы
Вы не можете отвечать на сообщения
Вы не можете редактировать свои сообщения
Вы не можете удалять свои сообщения
Вы не можете голосовать в опросах
Вы не можете прикреплять файлы к сообщениям
Вы не можете скачивать файлы