Поездка к морю / Поедем на море / Pojedeme k moři / To See the Sea (Иржи Мадл / Jiří Mádl) [2014, Чехия, драма, комедия, детский, HDTVRip 720p] VO + Sub Rus, Eng + Original Cze

Ответить на тему
 
Автор Сообщение

user ®

Стаж: 8 лет

Сообщений: 20008

Пост Пост: #1 от 22-Мар-2015 19:30

[Цитировать]

Поездка к морю / Поедем на море / Pojedeme k moři / To See the Sea
Страна: Чехия
Жанр: драма, комедия, детский
Год выпуска: 2014
Продолжительность: 01:30:24
Перевод: Одноголосый закадровый
Cубтитры: английские, русские (kidkong)
Оригинальная аудиодорожка: чешский
Режиссер: Иржи Мадл / Jiří Mádl
В ролях: Петр Шимчак / Petr Šimčák, Ян Маршал / Jan Maršál, Ондржей Ветхи / Ondřej Vetchý, Луцие Трмикова / Lucie Trmíková, Ярослава Покорна / Jaroslava Pokorná, Анастазие Хохолата / Anastásia Chocholatá, Michaela Majerníková, Ondřej Veselý, Zdeněk Bařinka, Miroslav Táborský, Lukáš Hrabák, Miloslav Šmídmajer
Описание: Одиннадцатилетний Томаш хочет стать кинорежиссером. Когда на день рождения ему дарят кинокамеру, он решает снять свой первый фильм – о своей семье и о своем друге. Начавшиеся как забава, съёмки вскоре открывают юному кинематографисту неприятную правду о собственном отце. Два раза в неделю тот вместо работы уезжает бог знает куда, но все отрицает. Мальчик и не подозревает, что случайно приблизился к семейной тайне, корни которой намного глубже, чем кажется на первый взгляд…
Доп. информация:


спасибо -
[url=http://***/forum/viewtopic.php?t=4887478]http://***/forum/viewtopic.php?t=4887478[/url]
Тип релиза: HDTVRip 720p | DON | sample
Контейнер: MKV
Видео: H.264/AVC, 1278x720, 16:9, 25.00fps, 5309 Kbps
Аудио #1 RUS: DD 2.0, 48 kHz, 224 kbps
Аудио #2 CZE: DD 5.1, 48 kHz, 384 kbps
Формат субтитров: softsub (SRT)
MediaInfo
Complete name                            : Pojedeme.k.mori.2014.720p.HDTV.x264.rus.cze.mkv
Format                                   : Matroska
Format version                           : Version 4 / Version 2
File size                                : 3.81 GiB
Duration                                 : 1h 30mn
Overall bit rate                         : 6 038 Kbps
Movie name                               : Pojedeme k moři (2014)
Encoded date                             : UTC 2015-03-21 06:24:46
Writing application                      : mkvmerge v7.6.0 ('Garden of Dreams') 64bit built on Feb  8 2015 13:04:34
Writing library                          : libebml v1.3.1 + libmatroska v1.4.2
DURATION                                 : 01:27:09.401000000
NUMBER_OF_FRAMES                         : 889
NUMBER_OF_BYTES                          : 46352
_STATISTICS_WRITING_APP                  : mkvmerge v7.6.0 ('Garden of Dreams') 64bit built on Feb  8 2015 13:04:34
_STATISTICS_WRITING_DATE_UTC             : 2015-03-21 06:24:46
_STATISTICS_TAGS                         : BPS DURATION NUMBER_OF_FRAMES NUMBER_OF_BYTES
Video
ID                                       : 1
Format                                   : AVC
Format/Info                              : Advanced Video Codec
Format profile                           : High@L4.1
Format settings, CABAC                   : Yes
Format settings, ReFrames                : 9 frames
Codec ID                                 : V_MPEG4/ISO/AVC
Duration                                 : 1h 30mn
Bit rate                                 : 5 309 Kbps
Width                                    : 1 278 pixels
Height                                   : 720 pixels
Display aspect ratio                     : 16:9
Frame rate mode                          : Constant
Frame rate                               : 25.000 fps
Color space                              : YUV
Chroma subsampling                       : 4:2:0
Bit depth                                : 8 bits
Scan type                                : Progressive
Bits/(Pixel*Frame)                       : 0.231
Stream size                              : 3.35 GiB (88%)
Writing library                          : x264 core 144 r0+2574 9abcd72 t_mod_Custom [8-bit@all X86_64]
Encoding settings                        : cabac=1 / ref=9 / deblock=1:-3:-3 / analyse=0x3:0x133 / me=tesa / subme=10 / psy=1 / fade_compensate=0.00 / psy_rd=1.05:0.00 / mixed_ref=1 / me_range=24 / chroma_me=1 / trellis=2 / 8x8dct=1 / cqm=0 / deadzone=21,11 / fast_pskip=0 / chroma_qp_offset=-2 / threads=12 / lookahead_threads=2 / sliced_threads=0 / nr=0 / decimate=0 / interlaced=0 / bluray_compat=0 / constrained_intra=0 / fgo=0 / bframes=8 / b_pyramid=2 / b_adapt=2 / b_bias=0 / direct=3 / weightb=1 / open_gop=0 / weightp=2 / keyint=250 / keyint_min=25 / scenecut=40 / intra_refresh=0 / rc_lookahead=60 / rc=crf / mbtree=0 / crf=16.0000 / qcomp=0.65 / qpmin=0:0:0 / qpmax=69:69:69 / qpstep=4 / vbv_maxrate=62500 / vbv_bufsize=78125 / crf_max=0.0 / nal_hrd=none / filler=0 / ip_ratio=1.40 / pb_ratio=1.30 / aq=4:0.80 / aq-sensitivity=10.00 / aq-factor=1.00:1.00:1.00 / aq2=0 / aq3=0
Language                                 : Czech
Default                                  : Yes
Forced                                   : No
Audio #1
ID                                       : 2
Format                                   : AC-3
Format/Info                              : Audio Coding 3
Mode extension                           : CM (complete main)
Format settings, Endianness              : Big
Codec ID                                 : A_AC3
Duration                                 : 1h 30mn
Bit rate mode                            : Constant
Bit rate                                 : 224 Kbps
Channel(s)                               : 2 channels
Channel positions                        : Front: L R
Sampling rate                            : 48.0 KHz
Bit depth                                : 16 bits
Compression mode                         : Lossy
Stream size                              : 145 MiB (4%)
Title                                    : VO
Language                                 : Russian
Default                                  : Yes
Forced                                   : No
Audio #2
ID                                       : 3
Format                                   : AC-3
Format/Info                              : Audio Coding 3
Mode extension                           : CM (complete main)
Format settings, Endianness              : Big
Codec ID                                 : A_AC3
Duration                                 : 1h 30mn
Bit rate mode                            : Constant
Bit rate                                 : 384 Kbps
Channel(s)                               : 6 channels
Channel positions                        : Front: L C R, Side: L R, LFE
Sampling rate                            : 48.0 KHz
Bit depth                                : 16 bits
Compression mode                         : Lossy
Stream size                              : 248 MiB (6%)
Language                                 : Czech
Default                                  : No
Forced                                   : No
Text #1
ID                                       : 4
Format                                   : UTF-8
Codec ID                                 : S_TEXT/UTF8
Codec ID/Info                            : UTF-8 Plain Text
Title                                    : kidkong
Language                                 : Russian
Default                                  : No
Forced                                   : No
Text #2
ID                                       : 5
Format                                   : UTF-8
Codec ID                                 : S_TEXT/UTF8
Codec ID/Info                            : UTF-8 Plain Text
Language                                 : English
Default                                  : No
Forced                                   : No
Menu
00:00:04.760                             : en:00:00:04.760
00:01:56.280                             : en:00:01:56.280
00:06:00.160                             : en:00:06:00.160
00:15:10.040                             : en:00:15:10.040
00:24:08.480                             : en:00:24:08.480
00:29:03.400                             : en:00:29:03.400
00:43:28.760                             : en:00:43:28.760
00:55:42.000                             : en:00:55:42.000
01:02:31.160                             : en:01:02:31.160
01:09:07.920                             : en:01:09:07.920
01:16:34.240                             : en:01:16:34.240
01:22:51.480                             : en:01:22:51.480
Скриншоты
Скачать

Скачать торрент!

Как скачивать? · Что такое торрент? · Рейтинг и ограничения

Сайт не распространяет и не хранит электронные версии произведений, а лишь предоставляет доступ к создаваемому пользователями каталогу ссылок на торрент-файлы, которые содержат только списки хеш-сумм

[Профиль] [ЛС]
Показать сообщения:    
Ответить на тему

Текущее время: Сегодня 09:29

Часовой пояс: GMT + 4



Вы не можете начинать темы
Вы не можете отвечать на сообщения
Вы не можете редактировать свои сообщения
Вы не можете удалять свои сообщения
Вы не можете голосовать в опросах
Вы не можете прикреплять файлы к сообщениям
Вы не можете скачивать файлы