Доказательство / Proof (Джослин Мурхаус / Jocelyn Moorhouse) [1991, Австралия, драма, BDRip 720p] 2x DVO + Sub Rus, Eng + Original Eng

Ответить на тему
 
Автор Сообщение

user ®

Стаж: 7 лет 7 месяцев

Сообщений: 20008

Пост Пост: #1 от 22-Мар-2015 19:30

[Цитировать]

Доказательство / Proof Страна: Австралия
Студия: The Australian Film Commission, Film Victoria
Жанр: драма
Год выпуска: 1991
Продолжительность: 01:29:55
Перевод 1: Профессиональный (двухголосый закадровый) [Пифагор - ГТРК Культура, 2004]
Перевод 2: Профессиональный (двухголосый закадровый) [Велес - CP Digital, СПб 2011, DVD.R5]
Cубтитры: русские, английские
Оригинальная аудиодорожка: английский
Режиссер: Джослин Мурхаус / Jocelyn Moorhouse
В ролях: Рассел Кроу, Хьюго Уивинг, Женевьев Пико, Хезер Митчелл, Джеффри Уокер, Дэниэл Поллок, Фрэнки Дж. Холден, Фрэнк Галлахер, Саския Пост, Белинда Дэвей, Клифф Эллен, Таня Арен, Дарко Тускан
Описание: Герой фильма Мартин слеп от рождения, он считает, что его никто не любит, даже мать тяготится им и хочет избавиться от него. Ему кажется, что все лгут ему, описывая окружающий мир. И тогда Мартин находит свой оригинальный способ проверить правдивость зрячих людей — он начинает заниматься фотографией.- -Тип релиза: BDRip 720p (Исходник: Blu-Ray Remux / 1080p / AVC / 23,976 fps / 20999 kbps / DTS-HD MA 2.0 ch 16-bit 933 kbps - NovaLan)
Контейнер: MKV
Видео: MPEG-4 AVC Video, 1280x688 / 1,85:1 (16:9) / ~5700 kbps / 23,976 fps / High@L4.1 / 2pass
Аудио 1: Russian: AC3 2.0 ch, 224 kbps, 48 kHz | двухголосый [Пифагор - [url=http://***/forum/viewtopic.php?t=2755912]Eugene-80[/url]]
Аудио 2: Russian: AC3 6 ch, 448 kbps, 48 kHz | двухголосый [Велес - [url=http://***/forum/viewtopic.php?t=4158727]Gahan Dave[/url]]
Аудио 3: English: AC3 6 ch, 384 kbps, 48 kHz | (DVD.NTSC)
Аудио 4: English: DTS, 2.0 ch, 16-bit, 768 kbps, 48 kHz
Формат субтитров: softsub (SRT)
Главы: подписаны (rus)
х264 Log
x264 [info]: frame I:894 Avg QP:14.86 size:146583
x264 [info]: frame P:26169 Avg QP:16.56 size: 52843
x264 [info]: frame B:102296 Avg QP:17.72 size: 22779
x264 [info]: consecutive B-frames: 1.4% 1.7% 5.4% 15.5% 20.5% 45.9% 6.3% 2.4% 1.0%
MediaInfo
Общее
Уникальный идентификатор : 186195665270700933377382527071147578807 (0x8C13FB10DBD8E64A9A99ECCD3C1CD5B7)
Полное имя : M:\Доказательство 1991.BDRip.720p.2хПД.Eng2.mkv
Формат : Matroska
Версия формата : Version 4 / Version 2
Размер файла : 4,73 Гбайт
Продолжительность : 1 ч. 29 м.
Общий поток : 7527 Кбит/сек
Название фильма : Proof (1991)
Дата кодирования : UTC 2015-03-21 05:58:21
Программа кодирования : mkvmerge v7.6.0 ('Garden of Dreams') 32bit built on Feb 8 2015 12:51:39
Библиотека кодирования : libebml v1.3.1 + libmatroska v1.4.2
Видео
Идентификатор : 1
Формат : AVC
Формат/Информация : Advanced Video Codec
Профиль формата : High@L4.1
Параметр CABAC формата : Да
Параметр ReFrames формата : 9 кадров
Идентификатор кодека : V_MPEG4/ISO/AVC
Продолжительность : 1 ч. 29 м.
Битрейт : 5700 Кбит/сек
Ширина : 1280 пикселей
Высота : 688 пикселей
Соотношение сторон : 1,85:1
Режим частоты кадров : Постоянный
Частота кадров : 23,976 кадра/сек
Цветовое пространство : YUV
Субдискретизация насыщенности : 4:2:0
Битовая глубина : 8 бит
Тип развёртки : Прогрессивная
Бит/(Пиксели*Кадры) : 0.270
Размер потока : 3,49 Гбайт (74%)
Библиотека кодирования : x264 core 144 r2525 40bb568
Настройки программы : cabac=1 / ref=9 / deblock=1:-3:-3 / analyse=0x3:0x133 / me=umh / subme=11 / psy=1 / psy_rd=1.00:0.00 / mixed_ref=1 / me_range=48 / chroma_me=1 / trellis=2 / 8x8dct=1 / cqm=0 / deadzone=21,11 / fast_pskip=0 / chroma_qp_offset=-2 / threads=6 / lookahead_threads=1 / sliced_threads=0 / nr=0 / decimate=0 / interlaced=0 / bluray_compat=0 / constrained_intra=0 / bframes=8 / b_pyramid=2 / b_adapt=2 / b_bias=0 / direct=3 / weightb=1 / open_gop=0 / weightp=2 / keyint=240 / keyint_min=23 / scenecut=40 / intra_refresh=0 / rc_lookahead=60 / rc=2pass / mbtree=0 / bitrate=5700 / ratetol=1.0 / qcomp=0.60 / qpmin=0 / qpmax=56 / qpstep=4 / cplxblur=20.0 / qblur=0.5 / vbv_maxrate=50000 / vbv_bufsize=62500 / nal_hrd=none / ip_ratio=1.30 / pb_ratio=1.20 / aq=2:0.85
Язык : English
Default : Да
Forced : Нет
Аудио #1
Идентификатор : 2
Формат : AC-3
Формат/Информация : Audio Coding 3
Расширение режима : CM (complete main)
Параметр Endianness формата : Big
Идентификатор кодека : A_AC3
Продолжительность : 1 ч. 29 м.
Вид битрейта : Постоянный
Битрейт : 224 Кбит/сек
Каналы : 2 канала
Расположение каналов : Front: L R
Частота : 48,0 КГц
Битовая глубина : 16 бит
Метод сжатия : С потерями
Размер потока : 144 Мбайт (3%)
Заголовок : AC3 2.0ch 224kbps - двухголосый (Пифагор - ГТРК Культура, 2004)
Язык : Russian
Default : Да
Forced : Нет
Аудио #2
Идентификатор : 3
Формат : AC-3
Формат/Информация : Audio Coding 3
Расширение режима : CM (complete main)
Параметр Endianness формата : Big
Идентификатор кодека : A_AC3
Продолжительность : 1 ч. 29 м.
Вид битрейта : Постоянный
Битрейт : 448 Кбит/сек
Каналы : 6 каналов
Расположение каналов : Front: L C R, Side: L R, LFE
Частота : 48,0 КГц
Битовая глубина : 16 бит
Метод сжатия : С потерями
Размер потока : 288 Мбайт (6%)
Заголовок : AC3 6ch 448kbps - двухголосый (Велес - CP Digital, СПб 2011, DVD5.R5.PAL)
Язык : Russian
Default : Нет
Forced : Нет
Аудио #3
Идентификатор : 4
Формат : AC-3
Формат/Информация : Audio Coding 3
Расширение режима : CM (complete main)
Параметр Endianness формата : Big
Идентификатор кодека : A_AC3
Продолжительность : 1 ч. 29 м.
Вид битрейта : Постоянный
Битрейт : 384 Кбит/сек
Каналы : 6 каналов
Расположение каналов : Front: L C R, Side: L R, LFE
Частота : 48,0 КГц
Битовая глубина : 16 бит
Метод сжатия : С потерями
Размер потока : 247 Мбайт (5%)
Заголовок : AC3 6ch 384kbps (DVD.NTSC)
Язык : English
Default : Нет
Forced : Нет
Аудио #4
Идентификатор : 5
Формат : DTS
Формат/Информация : Digital Theater Systems
Режим : 16
Параметр Endianness формата : Big
Идентификатор кодека : A_DTS
Продолжительность : 1 ч. 29 м.
Вид битрейта : Постоянный
Битрейт : 768 Кбит/сек
Каналы : 2 канала
Расположение каналов : Front: L R
Частота : 48,0 КГц
Битовая глубина : 16 бит
Метод сжатия : С потерями
Размер потока : 494 Мбайт (10%)
Заголовок : DTS 2.0ch 16-bit 768kbps - original
Язык : English
Default : Нет
Forced : Нет
Текст #1
Идентификатор : 6
Формат : UTF-8
Идентификатор кодека : S_TEXT/UTF8
Идентификатор кодека/Информация : UTF-8 Plain Text
Язык : Russian
Default : Нет
Forced : Нет
Текст #2
Идентификатор : 7
Формат : UTF-8
Идентификатор кодека : S_TEXT/UTF8
Идентификатор кодека/Информация : UTF-8 Plain Text
Язык : English
Default : Нет
Forced : Нет
Меню
00:00:00.000 : ru: 00:00:00 - Вступление
00:03:58.280 : ru: 00:03:58 - Слепой
00:09:35.325 : ru: 00:09:35 - Новый знакомый
00:14:47.846 : ru: 00:14:47 - Фотографии
00:20:17.509 : ru: 00:20:17 - День рождения
00:25:52.802 : ru: 00:25:52 - Поход в кино
00:33:09.239 : ru: 00:33:09 - Авария
00:40:18.334 : ru: 00:40:18 - Ревность
00:45:29.604 : ru: 00:45:29 - Обман
00:50:29.528 : ru: 00:50:29 - Сюрприз
00:54:02.825 : ru: 00:54:02 - Объект желания
00:59:40.955 : ru: 00:59:40 - Одиночество
01:04:40.796 : ru: 01:04:40 - Время говорить правду
01:10:57.464 : ru: 01:10:57 - Провокация
01:17:57.426 : ru: 01:17:57 - Разочарование
01:24:32.070 : ru: 01:24:32 - Последняя просьба
Скриншоты

Доп
Скачать

Скачать торрент!

Как скачивать? · Что такое торрент? · Рейтинг и ограничения

Сайт не распространяет и не хранит электронные версии произведений, а лишь предоставляет доступ к создаваемому пользователями каталогу ссылок на торрент-файлы, которые содержат только списки хеш-сумм

[Профиль] [ЛС]
Показать сообщения:    
Ответить на тему

Текущее время: Сегодня 08:09

Часовой пояс: GMT + 4



Вы не можете начинать темы
Вы не можете отвечать на сообщения
Вы не можете редактировать свои сообщения
Вы не можете удалять свои сообщения
Вы не можете голосовать в опросах
Вы не можете прикреплять файлы к сообщениям
Вы не можете скачивать файлы