Прометей / Prometheus (Ридли Скотт / Ridley Scott) [2012, США, Великобритания, фантастика, триллер, приключения, BDRip 1080p] Dub + 3х AVO (Сербин, Гаврилов, Горчаков) + Sub Rus, Ukr, Eng + Original Eng

Ответить на тему
 
Автор Сообщение

user ®

Стаж: 7 лет 7 месяцев

Сообщений: 20008

Пост Пост: #1 от 22-Мар-2015 19:30

[Цитировать]

Прометей / Prometheus Страна: США, Великобритания
Студия: Brandywine Productions Ltd.
Жанр: фантастика, триллер, приключения
Год выпуска: 2012
Продолжительность: 02:03:46
Перевод 1: Профессиональный (дублированный) Blu-ray CEE
Перевод 2: Авторский (одноголосый закадровый) Сербин
Перевод 3: Авторский (одноголосый закадровый) Гаврилов
Перевод 4: Авторский (одноголосый закадровый) Горчаков
Cубтитры: русские (forced, BD, voronine, 107miller, stevvie, Commentary #1, Commentary #2), украинские (forced, full), английские (full, SDH)
Оригинальная аудиодорожка: английский
Режиссер: Ридли Скотт / Ridley Scott
В ролях: Нуми Рапас, Майкл Фассбендер, Шарлиз Терон, Идрис Эльба, Гай Пирс, Логан Маршалл-Грин, Шон Харрис, Рейф Сполл, Иман Эллиотт, Бенедикт Вонг, Кейт Дики, Патрик Уилсон, Люси Хатчинсон
Описание: В поисках сакрального знания группа ученых отправляется в самые темные и неизведанные чертоги вселенной. Именно там, в отдаленных мирах, находясь на пределе своих умственных и физических возможностей, им предстоит вступить в безжалостную схватку за будущее всего человечества...

Тип релиза: BDRip 1080p [NTb]
Контейнер: MKV
Видео: AVC, 1920x800, 14000Kbps, 23.976 fps
Аудио 1: Russian: 48 kHz, DTS, 3/2 (L,C,R,l,r) + LFE ch, ~768.00 kbps avg |Blu-ray EUR|
Аудио 2: Ukrainian: 48 kHz, AC3, 3/2 (L,C,R,l,r) + LFE ch, ~448.00 kbps avg |Blu-ray EUR|
Аудио 3: Russian: 48 kHz, DTS, 3/2 (L,C,R,l,r) + LFE ch, ~1536.00 kbps avg |Сербин|
Аудио 4: Russian: 48 kHz, DTS, 3/2 (L,C,R,l,r) + LFE ch, ~1536.00 kbps avg |Гаврилов|
Аудио 5: Russian: 48 kHz, DTS, 3/2 (L,C,R,l,r) + LFE ch, ~1536.00 kbps avg |Горчаков|
Аудио 6: English: 48 kHz, DTS, 3/2 (L,C,R,l,r) + LFE ch, ~1536.00 kbps avg |Original|
Аудио 7: English: 48 kHz, AC3, 2/0 (L,R) ch, ~224.00 kbps avg |Commentary №1 (Ридли Скотт)|
Аудио 8: English: 48 kHz, AC3, 2/0 (L,R) ch, ~224.00 kbps avg |Commentary №2 (Джон Спэйтс)|
Чаптеры: есть

x264 log
frame I:1616 Avg QP:11.96 size:265989
frame P:41568 Avg QP:14.26 size:128471
frame B:134872 Avg QP:16.34 size: 53516
encoded 178056 frames, 4.17 fps, 13991.04 kb/s
MediaInfo
General
Unique ID : 208590574022682555804912700817105784356 (0x9CED1550B4A637F284BB90546ABC8E24)
Complete name : D:\рипы\Prometheus.2012.1080p.BluRay.DTS.x264-Talian-.mkv
Format : Matroska
Format version : Version 2
File size : 18.8 GiB
Duration : 2h 3mn
Overall bit rate : 21.7 Mbps
Movie name : Prometheus -Talian-
Encoded date : UTC 2015-03-21 10:37:06
Writing application : mkvmerge v5.7.0 ('The Whirlwind') built on Jul 8 2012 20:08:51
Writing library : libebml v1.2.3 + libmatroska v1.3.0
Attachment : Yes
Video
ID : 1
Format : AVC
Format/Info : Advanced Video Codec
Format profile : High@L4.1
Format settings, CABAC : Yes
Format settings, ReFrames : 5 frames
Codec ID : V_MPEG4/ISO/AVC
Duration : 2h 3mn
Bit rate : 14.0 Mbps
Width : 1 920 pixels
Height : 800 pixels
Display aspect ratio : 2.40:1
Frame rate : 23.976 fps
Color space : YUV
Chroma subsampling : 4:2:0
Bit depth : 8 bits
Scan type : Progressive
Bits/(Pixel*Frame) : 0.380
Stream size : 11.7 GiB (63%)
Writing library : x264 core 136 r2216 198a7ea
Encoding settings : cabac=1 / ref=5 / deblock=1:-3:-3 / analyse=0x3:0x113 / me=umh / subme=10 / psy=1 / psy_rd=1.12:0.08 / mixed_ref=1 / me_range=48 / chroma_me=1 / trellis=2 / 8x8dct=1 / cqm=0 / deadzone=21,11 / fast_pskip=0 / chroma_qp_offset=-3 / threads=12 / lookahead_threads=2 / sliced_threads=0 / nr=0 / decimate=1 / interlaced=0 / bluray_compat=0 / constrained_intra=0 / bframes=6 / b_pyramid=2 / b_adapt=2 / b_bias=0 / direct=3 / weightb=1 / open_gop=0 / weightp=2 / keyint=240 / keyint_min=23 / scenecut=40 / intra_refresh=0 / rc=2pass / mbtree=0 / bitrate=14000 / ratetol=1.0 / qcomp=0.70 / qpmin=0 / qpmax=69 / qpstep=4 / cplxblur=20.0 / qblur=0.5 / ip_ratio=1.40 / pb_ratio=1.30 / aq=1:0.80
Language : English
Default : Yes
Forced : No
Audio #1
ID : 2
Format : DTS
Format/Info : Digital Theater Systems
Codec ID : A_DTS
Duration : 2h 3mn
Bit rate mode : Constant
Bit rate : 755 Kbps
Channel(s) : 6 channels
Channel positions : Front: L C R, Side: L R, LFE
Sampling rate : 48.0 KHz
Bit depth : 24 bits
Compression mode : Lossy
Stream size : 668 MiB (3%)
Title : DUB-Blu-ray EUR
Language : Russian
Default : Yes
Forced : No
Audio #2
ID : 3
Format : AC-3
Format/Info : Audio Coding 3
Mode extension : CM (complete main)
Format settings, Endianness : Big
Codec ID : A_AC3
Duration : 2h 3mn
Bit rate mode : Constant
Bit rate : 448 Kbps
Channel(s) : 6 channels
Channel positions : Front: L C R, Side: L R, LFE
Sampling rate : 48.0 KHz
Bit depth : 16 bits
Compression mode : Lossy
Stream size : 397 MiB (2%)
Title : DUB-Blu-ray EUR
Language : Ukrainian
Default : No
Forced : No
Audio #3
ID : 4
Format : DTS
Format/Info : Digital Theater Systems
Codec ID : A_DTS
Duration : 2h 3mn
Bit rate mode : Constant
Bit rate : 1 510 Kbps
Channel(s) : 6 channels
Channel positions : Front: L C R, Side: L R, LFE
Sampling rate : 48.0 KHz
Bit depth : 24 bits
Compression mode : Lossy
Stream size : 1.31 GiB (7%)
Title : AVO-Сербин
Language : Russian
Default : No
Forced : No
Audio #4
ID : 5
Format : DTS
Format/Info : Digital Theater Systems
Codec ID : A_DTS
Duration : 2h 3mn
Bit rate mode : Constant
Bit rate : 1 510 Kbps
Channel(s) : 6 channels
Channel positions : Front: L C R, Side: L R, LFE
Sampling rate : 48.0 KHz
Bit depth : 24 bits
Compression mode : Lossy
Stream size : 1.31 GiB (7%)
Title : AVO-Гаврилов
Language : Russian
Default : No
Forced : No
Audio #5
ID : 6
Format : DTS
Format/Info : Digital Theater Systems
Codec ID : A_DTS
Duration : 2h 3mn
Bit rate mode : Constant
Bit rate : 1 510 Kbps
Channel(s) : 6 channels
Channel positions : Front: L C R, Side: L R, LFE
Sampling rate : 48.0 KHz
Bit depth : 24 bits
Compression mode : Lossy
Stream size : 1.31 GiB (7%)
Title : AVO-Горчаков
Language : Russian
Default : No
Forced : No
Audio #6
ID : 7
Format : DTS
Format/Info : Digital Theater Systems
Codec ID : A_DTS
Duration : 2h 3mn
Bit rate mode : Constant
Bit rate : 1 510 Kbps
Channel(s) : 6 channels
Channel positions : Front: L C R, Side: L R, LFE
Sampling rate : 48.0 KHz
Bit depth : 24 bits
Compression mode : Lossy
Stream size : 1.31 GiB (7%)
Title : Original
Language : English
Default : No
Forced : No
Audio #7
ID : 8
Format : AC-3
Format/Info : Audio Coding 3
Mode extension : CM (complete main)
Format settings, Endianness : Big
Codec ID : A_AC3
Duration : 2h 3mn
Bit rate mode : Constant
Bit rate : 224 Kbps
Channel(s) : 2 channels
Channel positions : Front: L R
Sampling rate : 48.0 KHz
Bit depth : 16 bits
Compression mode : Lossy
Stream size : 198 MiB (1%)
Title : Commentary #1 (Ridley Scott)
Language : English
Default : No
Forced : No
Audio #8
ID : 9
Format : AC-3
Format/Info : Audio Coding 3
Mode extension : CM (complete main)
Format settings, Endianness : Big
Codec ID : A_AC3
Duration : 2h 3mn
Bit rate mode : Constant
Bit rate : 224 Kbps
Channel(s) : 2 channels
Channel positions : Front: L R
Sampling rate : 48.0 KHz
Bit depth : 16 bits
Compression mode : Lossy
Stream size : 198 MiB (1%)
Title : Commentary #2 (Jon Spaihts, Damon Lindelof)
Language : English
Default : No
Forced : No
Text #1
ID : 10
Format : UTF-8
Codec ID : S_TEXT/UTF8
Codec ID/Info : UTF-8 Plain Text
Title : Sub-forced
Language : Russian
Default : Yes
Forced : No
Text #2
ID : 11
Format : UTF-8
Codec ID : S_TEXT/UTF8
Codec ID/Info : UTF-8 Plain Text
Title : Sub-BD
Language : Russian
Default : No
Forced : No
Text #3
ID : 12
Format : UTF-8
Codec ID : S_TEXT/UTF8
Codec ID/Info : UTF-8 Plain Text
Title : Sub-voronine
Language : Russian
Default : No
Forced : No
Text #4
ID : 13
Format : UTF-8
Codec ID : S_TEXT/UTF8
Codec ID/Info : UTF-8 Plain Text
Title : Sub-107miller
Language : Russian
Default : No
Forced : No
Text #5
ID : 14
Format : UTF-8
Codec ID : S_TEXT/UTF8
Codec ID/Info : UTF-8 Plain Text
Title : Sub-Stevvie
Language : Russian
Default : No
Forced : No
Text #6
ID : 15
Format : UTF-8
Codec ID : S_TEXT/UTF8
Codec ID/Info : UTF-8 Plain Text
Title : Sub-Commentary #1 (Ridley Scott)
Language : Russian
Default : No
Forced : No
Text #7
ID : 16
Format : UTF-8
Codec ID : S_TEXT/UTF8
Codec ID/Info : UTF-8 Plain Text
Title : Sub-Commentary #2 (Jon Spaihts, Damon Lindelof)
Language : Russian
Default : No
Forced : No
Text #8
ID : 17
Format : UTF-8
Codec ID : S_TEXT/UTF8
Codec ID/Info : UTF-8 Plain Text
Title : Sub-forced
Language : Ukrainian
Default : No
Forced : No
Text #9
ID : 18
Format : UTF-8
Codec ID : S_TEXT/UTF8
Codec ID/Info : UTF-8 Plain Text
Title : Sub-full
Language : Ukrainian
Default : No
Forced : No
Text #10
ID : 19
Format : UTF-8
Codec ID : S_TEXT/UTF8
Codec ID/Info : UTF-8 Plain Text
Title : Sub-full
Language : English
Default : No
Forced : No
Text #11
ID : 20
Format : UTF-8
Codec ID : S_TEXT/UTF8
Codec ID/Info : UTF-8 Plain Text
Title : Sub-SDH
Language : English
Default : No
Forced : No
Menu
00:00:00.000 : en:00:00:00.000
00:05:13.146 : en:00:05:13.146
00:07:44.881 : en:00:07:44.881
00:11:31.524 : en:00:11:31.524
00:15:09.784 : en:00:15:09.784
00:20:04.912 : en:00:20:04.912
00:22:32.810 : en:00:22:32.810
00:27:43.120 : en:00:27:43.120
00:31:57.833 : en:00:31:57.833
00:34:10.840 : en:00:34:10.840
00:37:53.229 : en:00:37:53.229
00:40:45.360 : en:00:40:45.360
00:45:49.330 : en:00:45:49.330
00:48:47.925 : en:00:48:47.925
00:50:23.062 : en:00:50:23.062
00:53:56.400 : en:00:53:56.400
00:56:32.222 : en:00:56:32.222
00:59:31.610 : en:00:59:31.610
01:01:29.185 : en:01:01:29.185
01:04:17.562 : en:01:04:17.562
01:06:01.457 : en:01:06:01.457
01:08:57.884 : en:01:08:57.884
01:11:13.519 : en:01:11:13.519
01:15:10.631 : en:01:15:10.631
01:17:06.038 : en:01:17:06.038
01:25:02.306 : en:01:25:02.306
01:27:09.349 : en:01:27:09.349
01:30:10.363 : en:01:30:10.363
01:32:43.725 : en:01:32:43.725
01:35:23.134 : en:01:35:23.134
01:37:46.861 : en:01:37:46.861
01:40:46.374 : en:01:40:46.374
01:43:46.220 : en:01:43:46.220
01:48:28.794 : en:01:48:28.794
01:52:08.096 : en:01:52:08.096
01:58:06.288 : en:01:58:06.288
Доп.информация
За Горчакова форуму Е-180: Nadoelo Werewolf77 Daniel Rock ZLODEY Offizier Loki1982 Slimka dir Tio bla_ vit SJC foxlight User Евгений_1 furria62 vik19662007 AlBeOne A I magvai Партизан YoGuRt-82 Pumamen Vladimir Larry Splinter ANISKIN50 Ken Диммон Gouzer ZLoDAY carnivale Nick roofman62 STONECOLD El Capitain alex3317 anvic dr_akula fen
За Гаврилова Пиратке: Джосс, dunhill200, lexal2002, Chistobaev, LAVR, SavineX, Slimka, Daniel Rock, Pain_70, Guyver, pestel, GaryH, КириллВП, Linnan, эвоки, TvarYuri, Dr. Destructo, GansAn, farti, therox, Perusta, Anatoliy555, Loki1982, Bakuman, zetrob, chef&chef, Architector44, _shurik_, avedon, rocky4, ZeDOK, shitman82, skrdma, _long_, Andrey_Tula, audiolubitel, eyrobot, kondratdoktor, myxamop, kix, denis_mgn_1987, Consul, skib, Rolly Tyler, fly32
За Сербина:Прагматик
Скриншоты
Source vs Encode



Скачать

Скачать торрент!

Как скачивать? · Что такое торрент? · Рейтинг и ограничения

Сайт не распространяет и не хранит электронные версии произведений, а лишь предоставляет доступ к создаваемому пользователями каталогу ссылок на торрент-файлы, которые содержат только списки хеш-сумм

[Профиль] [ЛС]
Показать сообщения:    
Ответить на тему

Текущее время: Сегодня 15:50

Часовой пояс: GMT + 4



Вы не можете начинать темы
Вы не можете отвечать на сообщения
Вы не можете редактировать свои сообщения
Вы не можете удалять свои сообщения
Вы не можете голосовать в опросах
Вы не можете прикреплять файлы к сообщениям
Вы не можете скачивать файлы