Лепестки надежды / Hope Springs (Марк Херман / Mark Herman) [2003, Великобритания, США, мелодрама, WEB-DL 720p] 2x DVO + Original (Eng) + Sub (Rus, Eng)

Ответить на тему
 
Автор Сообщение

user ®

Стаж: 7 лет 7 месяцев

Сообщений: 20008

Пост Пост: #1 от 22-Мар-2015 19:30

[Цитировать]

Лепестки надежды / Hope Springs
Страна: Великобритания, США
Жанр: мелодрама
Год выпуска: 2003
Продолжительность: 01:32:11
Перевод 1: Профессиональный (двухголосый закадровый)
Перевод 2: Профессиональный (двухголосый закадровый), с VHS
Cубтитры: русские, английские
Оригинальная аудиодорожка: английский
Режиссер: Марк Херман / Mark Herman
В ролях: Колин Фёрт, Хэзер Грэм, Минни Драйвер, Мэри Стинберген, Фрэнк Коллисон, Оливер Платт, Мэри Блэк, Кен Крамер, Чэд Фауст, Тони Алькантар
Описание: Любовные катастрофы заставляют потерпевших их совершать странные поступки. Получивший внезапную отставку от невесты Веры британский художник Колин, например, не нашел ничего лучше, чем уехать из Англии в глухой американский городишко и предаться провинциальной тоске.
Однако судьба дает герою шанс быстро покончить с сердечной депрессией, сводя его с местной медсестрой Мэнди, прелестной девушкой с добрым сердцем. И действительно, знакомство с Мэнди более чем благотворно влияет на Колина. В его сердце уже пробиваются ростки новой любви, как вдруг на горизонте объявляется… забытая было ветреная Вера! И она полна решимости вернуть своего парня назад — любой ценой!..
Сэмпл: https://yadi.sk/i/0G3bFSJWfQsbn
Тип релиза: WEB-DL 720p (источник видео: Hope.Springs.2003.720p.WEB-DL.H264-HDB [PublicHD].mkv)
Контейнер: MKV
Видео: AVC, 1280x544, 2.35:1, 3903 kbps, 23.976 fps
Аудио 1: RUS, AC3, 2.0, 48 kHz, 16 bit, 192 kbps (DVO)
Аудио 2: RUS, AC3, 2.0, 48 kHz, 16 bit, 192 kbps (DVO VHS)
Аудио 3: ENG, AC3, 5.1, 48 kHz, 16 bit, 448 kbps
Формат субтитров: softsub (SRT)
MediaInfo
General
Unique ID : 191345886982366610727599990746730860504 (0x8FF3E099D7F86AD0822E2D9633A60FD8)
Complete name : Лепестки надежды [2003] 720p.mkv
Format : Matroska
Format version : Version 4 / Version 2
File size : 3.11 GiB
Duration : 1h 32mn
Overall bit rate : 4 831 Kbps
Encoded date : UTC 2015-03-21 14:01:39
Writing application : mkvmerge v7.6.0 ('Garden of Dreams') 64bit built on Feb 8 2015 13:04:34
Writing library : libebml v1.3.1 + libmatroska v1.4.2
DURATION : 01:32:10.592000000
NUMBER_OF_FRAMES : 172831
NUMBER_OF_BYTES : 132734208
_STATISTICS_WRITING_APP : mkvmerge v7.6.0 ('Garden of Dreams') 64bit built on Feb 8 2015 13:04:34
_STATISTICS_WRITING_DATE_UTC : 2015-03-21 14:01:39
_STATISTICS_TAGS : BPS DURATION NUMBER_OF_FRAMES NUMBER_OF_BYTES
Video
ID : 1
Format : AVC
Format/Info : Advanced Video Codec
Format profile : Main@L3.1
Format settings, CABAC : No
Format settings, ReFrames : 2 frames
Codec ID : V_MPEG4/ISO/AVC
Duration : 1h 32mn
Bit rate : 3 903 Kbps
Width : 1 280 pixels
Height : 544 pixels
Display aspect ratio : 2.35:1
Frame rate mode : Constant
Frame rate : 23.976 fps
Color space : YUV
Chroma subsampling : 4:2:0
Bit depth : 8 bits
Scan type : Progressive
Bits/(Pixel*Frame) : 0.234
Stream size : 2.51 GiB (81%)
Language : English
Default : Yes
Forced : No
Color primaries : BT.709
Transfer characteristics : BT.709
Matrix coefficients : BT.709
Audio #1
ID : 2
Format : AC-3
Format/Info : Audio Coding 3
Mode extension : CM (complete main)
Format settings, Endianness : Big
Codec ID : A_AC3
Duration : 1h 32mn
Bit rate mode : Constant
Bit rate : 192 Kbps
Channel(s) : 2 channels
Channel positions : Front: L R
Sampling rate : 48.0 KHz
Bit depth : 16 bits
Compression mode : Lossy
Stream size : 127 MiB (4%)
Title : DVO
Language : Russian
Default : Yes
Forced : No
Audio #2
ID : 3
Format : AC-3
Format/Info : Audio Coding 3
Mode extension : CM (complete main)
Format settings, Endianness : Big
Codec ID : A_AC3
Duration : 1h 32mn
Bit rate mode : Constant
Bit rate : 192 Kbps
Channel(s) : 2 channels
Channel positions : Front: L R
Sampling rate : 48.0 KHz
Bit depth : 16 bits
Compression mode : Lossy
Stream size : 127 MiB (4%)
Title : DVO
Language : Russian
Default : No
Forced : No
Audio #3
ID : 4
Format : AC-3
Format/Info : Audio Coding 3
Mode extension : CM (complete main)
Format settings, Endianness : Big
Codec ID : A_AC3
Duration : 1h 32mn
Bit rate mode : Constant
Bit rate : 448 Kbps
Channel(s) : 6 channels
Channel positions : Front: L C R, Side: L R, LFE
Sampling rate : 48.0 KHz
Bit depth : 16 bits
Compression mode : Lossy
Stream size : 295 MiB (9%)
Title : ENG
Language : English
Default : No
Forced : No
Text #1
ID : 5
Format : UTF-8
Codec ID : S_TEXT/UTF8
Codec ID/Info : UTF-8 Plain Text
Language : Russian
Default : No
Forced : No
Text #2
ID : 6
Format : UTF-8
Codec ID : S_TEXT/UTF8
Codec ID/Info : UTF-8 Plain Text
Language : English
Default : No
Forced : No
Menu
00:00:00.000 : en:Opening Credits/Journey of Hope
00:09:53.000 : en:Mending a Broken Heart
00:18:28.000 : en:Joyride
00:27:56.000 : en:Not in Love
00:31:53.000 : en:Images of Hope
00:39:47.000 : en:Surprise Visit
00:45:51.000 : en:A Chance Encounter
00:57:14.000 : en:Choices
01:10:45.000 : en:The Key to the City
01:18:57.000 : en:Queen of Hope
01:24:35.000 : en:A Promising Future
01:28:28.000 : en:End Credits
Скриншоты
Скачать

Скачать торрент!

Как скачивать? · Что такое торрент? · Рейтинг и ограничения

Сайт не распространяет и не хранит электронные версии произведений, а лишь предоставляет доступ к создаваемому пользователями каталогу ссылок на торрент-файлы, которые содержат только списки хеш-сумм

[Профиль] [ЛС]
Показать сообщения:    
Ответить на тему

Текущее время: Сегодня 05:52

Часовой пояс: GMT + 4



Вы не можете начинать темы
Вы не можете отвечать на сообщения
Вы не можете редактировать свои сообщения
Вы не можете удалять свои сообщения
Вы не можете голосовать в опросах
Вы не можете прикреплять файлы к сообщениям
Вы не можете скачивать файлы