Тело как улика / Body of Evidence (Ули Эдель / Uli Edel) [1993, Германия, США, триллер, драма, эротика, WEB-DL 1080p] MVO (5 канал) + DVO (СВ-Дубль) + AVO (Михалёв) Sub Eng + Original Eng

Ответить на тему
 
Автор Сообщение

user ®

Стаж: 7 лет 7 месяцев

Сообщений: 20008

Пост Пост: #1 от 22-Мар-2015 19:30

[Цитировать]

Тело как улика / Body of Evidence
Страна: Германия, США
Жанр: триллер, драма, эротика
Год выпуска: 1993
Продолжительность: 01:40:54
Перевод 1: Профессиональный (многоголосый закадровый) 5 канал
Перевод 2: Профессиональный (двухголосый закадровый) СВ-Дубль
Перевод 3: Авторский (одноголосый закадровый) Алексей Михалёв
Cубтитры: английские
Оригинальная аудиодорожка: английский
Режиссер: Ули Эдель / Uli Edel
В ролях: Мадонна, Уиллем Дефо, Энн Арчер, Джулианна Мур, Джо Мантенья, Юрген Прохнов, Фрэнк Ланджелла, Стэн Шоу, Чарльз Хэллахан, Лиллиан Леман...
Описание: Влюбившись в свою подзащитную, обвиняемую в убийстве, адвокат Фрэнк Дилэйн так умело строит речь в суде, что ему удается убедить присяжных вынести оправдательный вердикт. А через день Фрэнк становится невольным свидетелем разговора своей подзащитной с человеком, который помог ей совершить убийство…
Доп. информация: Перевод 5 канала с раздачи StudioRAK, перевод СВ-Дубль с раздачи slavikevro, перевод Михалёва с раздачи Tanitra84.
Перевод с раздачи sdimitrii пересинхронизации не подлежит, сильный плавающий рассинхрон.
Сэмпл: http://multi-up.com/1039570
Тип релиза: WEB-DL 1080p
Контейнер: MKV
Видео: 1916x1036 (1.85:1), 23.976 fps, AVC, ~4938 Kbps, 0.104 bits/pixel
Аудио 1: Russian, 48.0 KHz, AC3, 2 ch, 192 Kbps - 5 канал
Аудио 2: Russian, 48.0 KHz, AC3, 2 ch, 192 Kbps - СВ-Дубль
Аудио 3: Russian, 48.0 KHz, AC3, 2 ch, 192 Kbps - Алексей Михалёв
Аудио 4: English, 48.0 KHz, AC3, 2 ch, 192 Kbps

Сравнение
[url=http://***/forum/viewtopic.php?t=3853995]http://***/forum/viewtopic.php?t=3853995[/url]


MediaInfo
General
Unique ID : 219829032386871389357136063862488841826 (0xA5618817B897A2A0A726733EFCFE3E62)
Complete name : C:\Body of Evidence.mkv
Format : Matroska
Format version : Version 4 / Version 2
File size : 4.10 GiB
Duration : 1h 40mn
Overall bit rate : 5 822 Kbps
Encoded date : UTC 2015-03-21 13:51:34
Writing application : mkvmerge v7.7.0 ('Six Voices') 64bit built on Feb 28 2015 23:39:33
Writing library : libebml v1.3.1 + libmatroska v1.4.2
Attachements : Poster.jpg
DURATION : 01:35:45.000000000
NUMBER_OF_FRAMES : 1234
NUMBER_OF_BYTES : 40203
_STATISTICS_WRITING_APP : mkvmerge v7.7.0 ('Six Voices') 64bit built on Feb 28 2015 23:39:33
_STATISTICS_WRITING_DATE_UT : 2015-03-21 13:51:34
_STATISTICS_TAGS : BPS DURATION NUMBER_OF_FRAMES NUMBER_OF_BYTES
Video
ID : 1
Format : AVC
Format/Info : Advanced Video Codec
Format profile : High@L4.0
Format settings, CABAC : Yes
Format settings, ReFrames : 4 frames
Codec ID : V_MPEG4/ISO/AVC
Duration : 1h 40mn
Bit rate : 4 938 Kbps
Width : 1 916 pixels
Height : 1 036 pixels
Display aspect ratio : 1.85:1
Frame rate mode : Constant
Frame rate : 23.976 fps
Color space : YUV
Chroma subsampling : 4:2:0
Bit depth : 8 bits
Scan type : Progressive
Bits/(Pixel*Frame) : 0.104
Stream size : 3.48 GiB (85%)
Language : English
Default : Yes
Forced : No
Color primaries : BT.709
Transfer characteristics : BT.709
Matrix coefficients : BT.709
Color range : Limited
Audio #1
ID : 2
Format : AC-3
Format/Info : Audio Coding 3
Mode extension : CM (complete main)
Format settings, Endianness : Big
Codec ID : A_AC3
Duration : 1h 40mn
Bit rate mode : Constant
Bit rate : 192 Kbps
Channel(s) : 2 channels
Channel positions : Front: L R
Sampling rate : 48.0 KHz
Bit depth : 16 bits
Compression mode : Lossy
Stream size : 139 MiB (3%)
Title : 5 канал
Language : Russian
Default : Yes
Forced : No
Audio #2
ID : 3
Format : AC-3
Format/Info : Audio Coding 3
Mode extension : CM (complete main)
Format settings, Endianness : Big
Codec ID : A_AC3
Duration : 1h 40mn
Bit rate mode : Constant
Bit rate : 192 Kbps
Channel(s) : 2 channels
Channel positions : Front: L R
Sampling rate : 48.0 KHz
Bit depth : 16 bits
Compression mode : Lossy
Stream size : 139 MiB (3%)
Title : СВ-Дубль
Language : Russian
Default : No
Forced : No
Audio #3
ID : 4
Format : AC-3
Format/Info : Audio Coding 3
Mode extension : CM (complete main)
Format settings, Endianness : Big
Codec ID : A_AC3
Duration : 1h 40mn
Bit rate mode : Constant
Bit rate : 192 Kbps
Channel(s) : 2 channels
Channel positions : Front: L R
Sampling rate : 48.0 KHz
Bit depth : 16 bits
Compression mode : Lossy
Stream size : 139 MiB (3%)
Title : Алексей Михалёв
Language : Russian
Default : No
Forced : No
Audio #4
ID : 5
Format : AC-3
Format/Info : Audio Coding 3
Mode extension : CM (complete main)
Format settings, Endianness : Big
Codec ID : A_AC3
Duration : 1h 40mn
Bit rate mode : Constant
Bit rate : 192 Kbps
Channel(s) : 2 channels
Channel positions : Front: L R
Sampling rate : 48.0 KHz
Bit depth : 16 bits
Compression mode : Lossy
Stream size : 139 MiB (3%)
Language : English
Default : No
Forced : No
Text
ID : 6
Format : UTF-8
Codec ID : S_TEXT/UTF8
Codec ID/Info : UTF-8 Plain Text
Language : English
Default : No
Forced : No
Menu
00:00:00.000 : :Sex Crime
00:04:47.567 : :"I Loved Him"
00:11:41.734 : :Animalistic Love
00:15:29.234 : :Legal Drugs
00:22:29.568 : :The Trial Begins
00:33:43.701 : :Seductive Flirtation
00:36:25.701 : :White-Hot Passion
00:47:32.901 : :Blackmailing Doctor
00:53:20.401 : :Sex on Level P4
00:57:36.235 : :Arousing Testimony
01:03:36.735 : :"I Trusted You!"
01:11:40.703 : :A New Suspect
01:18:47.870 : :A Provocative Witness
01:28:36.370 : :The Verdict Is In
01:31:16.204 : :"Hard to Resist"
01:36:06.371 : :Karma Gets the Credit
Скриншоты
Скачать

Скачать торрент!

Как скачивать? · Что такое торрент? · Рейтинг и ограничения

Сайт не распространяет и не хранит электронные версии произведений, а лишь предоставляет доступ к создаваемому пользователями каталогу ссылок на торрент-файлы, которые содержат только списки хеш-сумм

[Профиль] [ЛС]
Показать сообщения:    
Ответить на тему

Текущее время: Сегодня 22:24

Часовой пояс: GMT + 4



Вы не можете начинать темы
Вы не можете отвечать на сообщения
Вы не можете редактировать свои сообщения
Вы не можете удалять свои сообщения
Вы не можете голосовать в опросах
Вы не можете прикреплять файлы к сообщениям
Вы не можете скачивать файлы