Чужие против ниндзя / Alien vs. Ninja (Сейдзи Тиба / Seiji Chiba) [2010, Япония, ужасы, фантастика, фэнтези, боевик, комедия, BDRip] DVO (Новый диск)

Ответить на тему
 
Автор Сообщение

user ®

Стаж: 13 лет

Сообщений: 15071

Пост Пост: #1 от 22-Мар-2015 04:51

[Цитировать]

Чужие против ниндзя / Alien vs. Ninja
Страна: Япония
Студия: Nikkatsu Corporation, North CKY
Жанр: ужасы, фантастика, фэнтези, боевик, комедия
Год выпуска: 2010
Продолжительность: 01:21:04
Перевод: Профессиональный (двухголосый закадровый) "Новый диск"
Cубтитры: нет
Оригинальная аудиодорожка: нет
Режиссер: Сейдзи Тиба / Seiji Chiba
В ролях: Сууджи Касивабара, Мика Хидзии, Бэн Хиура, Кодзи Инагаки, Хайме Иноэ, Катсу Итагаки, Таро Каназава, Сюя Масита, Масанори Мимото, Хидэаки Морикава
Описание: Воины-ниндзя становятся свидетелями того, как огненный шар падает с неба недалеко от их деревни. Вскоре они находят пришельцев, которые нападают на них. Выжившие клянутся отомстить, но позже выясняется, что их оружие бесполезно…
Релиз от -
Сэмпл: http://multi-up.com/1039627
Тип релиза: BDRip (исх. [url=http://***/forum/viewtopic.php?t=4853143]BDRemux 1080p[/url])
Контейнер: AVI
Видео: XviD, 1074 kbps, 656 х 368 pixels, 29.970 fps
Аудио: МР3, 128 Kbps, 2 channels, Front: L R, 48.0 KHz

MediaInfo
General
Complete name : D:\kirovtorrent\Alien.vs.Ninja.2010.BDRip.745mb.avi
Format : AVI
Format/Info : Audio Video Interleave
File size : 704 MiB
Duration : 1h 21mn
Overall bit rate : 1 214 Kbps
Writing application : VirtualDubMod 1.5.10.3 | www.virtualdub-fr.org || (build 2550/release)
Writing library : VirtualDubMod build 2550/release
Video
ID : 0
Format : MPEG-4 Visual
Format profile : Advanced Simple@L5
Format settings, BVOP : 1
Format settings, QPel : No
Format settings, GMC : No warppoints
Format settings, Matrix : Custom
Codec ID : XVID
Codec ID/Hint : XviD
Duration : 1h 21mn
Bit rate : 1 074 Kbps
Width : 656 pixels
Height : 368 pixels
Display aspect ratio : 16:9
Frame rate : 29.970 fps
Color space : YUV
Chroma subsampling : 4:2:0
Bit depth : 8 bits
Scan type : Progressive
Compression mode : Lossy
Bits/(Pixel*Frame) : 0.148
Stream size : 623 MiB (88%)
Writing library : XviD 73
Audio
ID : 1
Format : MPEG Audio
Format version : Version 1
Format profile : Layer 3
Codec ID : 55
Codec ID/Hint : MP3
Duration : 1h 21mn
Bit rate mode : Constant
Bit rate : 128 Kbps
Channel(s) : 2 channels
Sampling rate : 48.0 KHz
Compression mode : Lossy
Stream size : 74.2 MiB (11%)
Alignment : Aligned on interleaves
Interleave, duration : 33 ms (1.00 video frame)
Interleave, preload duration : 504 ms
Writing library : LAME3.99r
Encoding settings : -m s -V 4 -q 2 -lowpass 17 -b 128
Скриншоты
Скачать

Скачать торрент! Чужие против ниндзя / Alien vs. Ninja (Сейдзи Тиба / Seiji Chiba) [2010, Япония, ужасы, фантастика, фэнтези, боевик, комедия, BDRip] DVO (Новый диск)

Как скачивать? · Что такое торрент? · Рейтинг и ограничения

Сайт не распространяет и не хранит электронные версии произведений, а лишь предоставляет доступ к создаваемому пользователями каталогу ссылок на торрент-файлы, которые содержат только списки хеш-сумм

[Профиль] [ЛС]
Показать сообщения:    
Ответить на тему

Текущее время: Сегодня 16:33

Часовой пояс: GMT + 4



Вы не можете начинать темы
Вы не можете отвечать на сообщения
Вы не можете редактировать свои сообщения
Вы не можете удалять свои сообщения
Вы не можете голосовать в опросах
Вы не можете прикреплять файлы к сообщениям
Вы не можете скачивать файлы