Обмануть всех / I Spy (Бетти Томас / Betty Thomas) [2002, США, боевик, комедия, приключения, WEB-DL 720p] Dub + MVO + Sub Rus, Eng + Original Eng

Ответить на тему
 
Автор Сообщение

user ®

Стаж: 7 лет 7 месяцев

Сообщений: 20008

Пост Пост: #1 от 21-Мар-2015 22:39

[Цитировать]

Обмануть всех / I Spy
Страна: США
Жанр: боевик, комедия, приключения
Год выпуска: 2002
Продолжительность: 01:36:35
Перевод 1: Профессиональный (дублированный)
Перевод 2: Профессиональный (многоголосый закадровый)
Cубтитры: русские, английские
Оригинальная аудиодорожка: английский
Режиссер: Бетти Томас / Betty Thomas
В ролях: Эдди Мёрфи, Оуэн Уилсон, Фамке Янссен, Малкольм МакДауэлл, Гэри Коул, Фил Льюис, Вив Ликок, Кит Даллас, Тейт Тейлор, Линда Бойд...
Описание: Мир организованной преступности бросает новый вызов. Похищен новейший самолет-невидимка, и правительство США посылает команду из двух непобедимых бойцов — суперагента Алекса Скотта и чемпиона по боксу Келли Робинсона. Необходимо во что бы то ни стало вернуть попавший в руки Арнольда Гундарса, подпольного торговца элитным вооружением, прототип истребителя нового поколения и сделать это до того, как он станет смертельной игрушкой в руках злодеев. Для этого нужно проникнуть в логово Гундарса.
Прикрытием для выполнения этой отчаянной миссии должен послужить бой между Робинсоном и действующим европейским чемпионом. Чтобы удачно справиться с заданием, недостаточно просто обмануть всех — нужно для начала найти общий язык с напарником! В конце концов, все противоречия удается преодолеть, и впереди остается только одна цель — не дать взлететь «Стэлсу», снаряженному ядерным зарядом. Ради этого Келли и Алекс не остановятся ни перед чем!
Сэмпл: http://multi-up.com/1039437
Тип релиза: WEB-DL 720p
Контейнер: MKV
Видео: 1276x720 (16:9), 23.976 fps, AVC, ~3946 Kbps, 0.179 bits/pixel
Аудио 1: Russian, 48.0 KHz, AC3, 6 ch, 448 Kbps - Dub
Аудио 2: Russian, 48.0 KHz, AC3, 6 ch, 448 Kbps - MVO
Аудио 3: English, 48.0 KHz, AC3, 6 ch, 448 Kbps

Сравнение
[url=http://***/forum/viewtopic.php?t=1371406]http://***/forum/viewtopic.php?t=1371406[/url]
http://screenshotcomparison.com/comparison/117330/picture:3
MediaInfo
General
Unique ID : 183579038431376142125813323475707567538 (0x8A1C0966FC3986A98D60EB41219D1DB2)
Complete name : D:\Новая папка (2)\I Spy.mkv
Format : Matroska
Format version : Version 4 / Version 2
File size : 3.64 GiB
Duration : 1h 36mn
Overall bit rate : 5 398 Kbps
Movie name :
Encoded date : UTC 2015-03-20 18:55:43
Writing application : mkvmerge v7.7.0 ('Six Voices') 64bit built on Feb 28 2015 23:39:33
Writing library : libebml v1.3.1 + libmatroska v1.4.2
DURATION : 01:29:55.240000000
NUMBER_OF_FRAMES : 1439
NUMBER_OF_BYTES : 58634
_STATISTICS_WRITING_APP : mkvmerge v7.7.0 ('Six Voices') 64bit built on Feb 28 2015 23:39:33
_STATISTICS_WRITING_DATE_UT : 2015-03-20 18:55:43
_STATISTICS_TAGS : BPS DURATION NUMBER_OF_FRAMES NUMBER_OF_BYTES
Video
ID : 1
Format : AVC
Format/Info : Advanced Video Codec
Format profile : High@L3.1
Format settings, CABAC : No
Format settings, ReFrames : 2 frames
Codec ID : V_MPEG4/ISO/AVC
Duration : 1h 36mn
Bit rate : 3 947 Kbps
Width : 1 276 pixels
Height : 720 pixels
Display aspect ratio : 16:9
Frame rate mode : Constant
Frame rate : 23.976 fps
Color space : YUV
Chroma subsampling : 4:2:0
Bit depth : 8 bits
Scan type : Progressive
Bits/(Pixel*Frame) : 0.179
Stream size : 2.66 GiB (73%)
Language : English
Default : Yes
Forced : No
Color primaries : BT.709
Transfer characteristics : BT.709
Matrix coefficients : BT.709
Color range : Limited
Audio #1
ID : 2
Format : AC-3
Format/Info : Audio Coding 3
Mode extension : CM (complete main)
Format settings, Endianness : Big
Codec ID : A_AC3
Duration : 1h 36mn
Bit rate mode : Constant
Bit rate : 448 Kbps
Channel(s) : 6 channels
Channel positions : Front: L C R, Side: L R, LFE
Sampling rate : 48.0 KHz
Bit depth : 16 bits
Compression mode : Lossy
Stream size : 310 MiB (8%)
Language : Russian
Default : Yes
Forced : No
Audio #2
ID : 3
Format : AC-3
Format/Info : Audio Coding 3
Mode extension : CM (complete main)
Format settings, Endianness : Big
Codec ID : A_AC3
Duration : 1h 36mn
Bit rate mode : Constant
Bit rate : 448 Kbps
Channel(s) : 6 channels
Channel positions : Front: L C R, Side: L R, LFE
Sampling rate : 48.0 KHz
Bit depth : 16 bits
Compression mode : Lossy
Stream size : 310 MiB (8%)
Language : Russian
Default : No
Forced : No
Audio #3
ID : 4
Format : AC-3
Format/Info : Audio Coding 3
Mode extension : CM (complete main)
Format settings, Endianness : Big
Codec ID : A_AC3
Duration : 1h 36mn
Bit rate mode : Constant
Bit rate : 448 Kbps
Channel(s) : 6 channels
Channel positions : Front: L C R, Side: L R, LFE
Sampling rate : 48.0 KHz
Bit depth : 16 bits
Compression mode : Lossy
Stream size : 310 MiB (8%)
Language : English
Default : No
Forced : No
Text #1
ID : 5
Format : UTF-8
Codec ID : S_TEXT/UTF8
Codec ID/Info : UTF-8 Plain Text
Language : Russian
Default : No
Forced : No
Text #2
ID : 6
Format : UTF-8
Codec ID : S_TEXT/UTF8
Codec ID/Info : UTF-8 Plain Text
Language : English
Default : No
Forced : No
Menu
00:00:00.000 : en:1
00:07:46.000 : en:2
00:12:30.000 : en:3
00:19:06.000 : en:4
00:27:04.000 : en:5
00:33:37.000 : en:6
00:41:23.000 : en:7
00:48:05.000 : en:8
00:55:16.000 : en:9
01:00:39.000 : en:10
01:04:15.000 : en:11
01:12:02.000 : en:12
01:17:32.000 : en:13
01:20:52.000 : en:14
01:25:32.000 : en:15
01:27:26.000 : en:16
Скриншоты
Скачать

Скачать торрент!

Как скачивать? · Что такое торрент? · Рейтинг и ограничения

Сайт не распространяет и не хранит электронные версии произведений, а лишь предоставляет доступ к создаваемому пользователями каталогу ссылок на торрент-файлы, которые содержат только списки хеш-сумм

[Профиль] [ЛС]
Показать сообщения:    
Ответить на тему

Текущее время: Сегодня 00:26

Часовой пояс: GMT + 4



Вы не можете начинать темы
Вы не можете отвечать на сообщения
Вы не можете редактировать свои сообщения
Вы не можете удалять свои сообщения
Вы не можете голосовать в опросах
Вы не можете прикреплять файлы к сообщениям
Вы не можете скачивать файлы