Как я ездил к деве Севера / Kā es braucu Ziemeļmeitas lūkoties (Розе Стиебра / Rоze Stiebrа) [1980, мультфильм для взрослых, экранизация, DVDRip] DVO

Ответить на тему
 
Автор Сообщение

user ®

Стаж: 7 лет 7 месяцев

Сообщений: 20008

Пост Пост: #1 от 21-Мар-2015 16:27

[Цитировать]

Как я ездил к деве Севера / Kā es braucu Ziemeļmeitas lūkoties
Страна: СССР (Латвийская республика)
Жанр: мультфильм для взрослых, экранизация
Продолжительность: 00:10:08
Год выпуска: 1980
Перевод: любительский (двухголосый закадровый)
Русские субтитры: нет
Режиссёр: Розе Стиебра / Rоze Stiebrа
Роли озвучивали: Валдемар Зандбергс / Valdemārs Zandbergs, Улдис Думпис / Uldis Dumpis, Олга Дреге / Olga Dreģe
Русская озвучка: Nevrastenik, Даша_ст
Описание: Экранизация притчи Карлиса Скалбе.
Романтичный молодой человек отправляется на лодке через море, надеясь на встречу со сказочной девой Севера. Но, решив плыть менее опасным путём, оказывается на острове, где живут люди, предающиеся лени и чревоугодию...
Доп. информация: Приз за Лучший анимационный фильм на фестивале "Lielais Kristaps" (1980)
Качество: DVDRip
Формат: AVI
Видео: 1927 kbps, 720х544 (4:3), 25.000 fps, MPEG-4 Visual (XviD)
Аудио 1: (русский) 128 kbps, 48.0 kHz, 2 channels, MPEG Audio (MP3)
Аудио 2: (латышский) 128 kbps, 44.1 kHz, 2 channels, MPEG Audio (MP3)
Субтитры: отсутствуют
Подробные технические данные
General
Complete name : Ka es braucu Ziemelmeitas lukoties (1980).avi
Format : AVI
Format/Info : Audio Video Interleave
File size : 159 MiB
Duration : 10mn 8s
Overall bit rate : 2 197 Kbps
Writing application : VirtualDubModRus 1.5.10.2 (build 2542/release)
Writing library : VirtualDubMod build 2542/release
Video
ID : 0
Format : MPEG-4 Visual
Format profile : Advanced Simple@L4
Format settings, BVOP : No
Format settings, QPel : No
Format settings, GMC : No warppoints
Format settings, Matrix : Default (H.263)
Codec ID : XVID
Codec ID/Hint : XviD
Duration : 10mn 8s
Bit rate : 1 927 Kbps
Width : 720 pixels
Height : 544 pixels
Display aspect ratio : 4:3
Frame rate : 25.000 fps
Color space : YUV
Chroma subsampling : 4:2:0
Bit depth : 8 bits
Scan type : Progressive
Compression mode : Lossy
Bits/(Pixel*Frame) : 0.197
Stream size : 140 MiB (88%)
Writing library : XviD 64
Audio #1
ID : 1
Format : MPEG Audio
Format version : Version 1
Format profile : Layer 3
Mode : Joint stereo
Mode extension : MS Stereo
Codec ID : 55
Codec ID/Hint : MP3
Duration : 10mn 8s
Bit rate mode : Constant
Bit rate : 128 Kbps
Channel(s) : 2 channels
Sampling rate : 48.0 KHz
Compression mode : Lossy
Stream size : 9.28 MiB (6%)
Alignment : Aligned on interleaves
Interleave, duration : 40 ms (1.00 video frame)
Interleave, preload duration : 504 ms
Writing library : LAME3.99r
Encoding settings : -m j -V 4 -q 3 -lowpass 17 -b 128
Audio #2
ID : 2
Format : MPEG Audio
Format version : Version 1
Format profile : Layer 3
Mode : Joint stereo
Mode extension : MS Stereo
Codec ID : 55
Codec ID/Hint : MP3
Duration : 10mn 8s
Bit rate mode : Constant
Bit rate : 128 Kbps
Channel(s) : 2 channels
Sampling rate : 44.1 KHz
Compression mode : Lossy
Stream size : 9.28 MiB (6%)
Alignment : Split accross interleaves
Interleave, duration : 40 ms (1.00 video frame)
Interleave, preload duration : 500 ms
Writing library : LAME3.99r
Encoding settings : -m j -V 4 -q 3 -lowpass 17 -b 128
Скриншоты
Скачать

Скачать торрент!

Как скачивать? · Что такое торрент? · Рейтинг и ограничения

Сайт не распространяет и не хранит электронные версии произведений, а лишь предоставляет доступ к создаваемому пользователями каталогу ссылок на торрент-файлы, которые содержат только списки хеш-сумм

[Профиль] [ЛС]
Показать сообщения:    
Ответить на тему

Текущее время: Сегодня 03:51

Часовой пояс: GMT + 4



Вы не можете начинать темы
Вы не можете отвечать на сообщения
Вы не можете редактировать свои сообщения
Вы не можете удалять свои сообщения
Вы не можете голосовать в опросах
Вы не можете прикреплять файлы к сообщениям
Вы не можете скачивать файлы