Дело в шляпе (Владимир Самсонов) [1975, Рисованный мультфильм, DVB]

Ответить на тему
 
Автор Сообщение

user ®

Стаж: 7 лет 7 месяцев

Сообщений: 20008

Пост Пост: #1 от 21-Мар-2015 16:27

[Цитировать]

Дело в шляпе
Страна: CCCР
Жанр: Рисованный мультфильм
Продолжительность: 00:10:12
Год выпуска: 1975
Русские субтитры: нет
Режиссёр: Владимир Самсонов
Роли озвучивали: Олег Табаков
Описание: В шутливой форме мультфильм напоминает о том, что при быстрых темпах развития цивилизации необходимо заботиться о сохранении окружающей среды
Доп. информация: Производство: т/о «Экран»
художник-постановщик: В. Песков
художники-мультипликаторы: Л. Рыбчевская, А. Колков, В. Спарыхин, В. Козлов, С. Степанов, Ю. Белов, В. Меджибовский, А. Федулов, А. Левчик
сценаристы: Л. Измаилов, В. Веселовский
оператор: Л. Ревтов
звукооператор: В. Азаровский
редактор: В. Коновалова
монтажер: Г. Дробинина
Раздача группы:
Исходник: Itartass
Качество: DVB
Формат: MPEG-PS
Видео: MPEG2 Video, 720x576 (4:3), 25 fps, ~4 832 kbps, 0.46 bit/pixel
Аудио: MPEG Audio, 2 сh, 48 kHz, 192 kbps
Субтитры: нет
Подробные технические данные
Format : MPEG-PSFile size : 374 MiBDuration : 10mn 12sOverall bit rate mode : VariableOverall bit rate : 5 127 Kbps
VideoID : 224 (0xE0)Format : MPEG VideoFormat version : Version 2Format profile : Main@MainFormat settings, BVOP : YesFormat settings, Matrix : CustomFormat settings, GOP : VariableDuration : 10mn 12sBit rate mode : VariableBit rate : 4 833 KbpsMaximum bit rate : 15.0 MbpsWidth : 720 pixelsHeight : 576 pixelsDisplay aspect ratio : 4:3Frame rate : 25.000 fpsStandard : PALColor space : YUVChroma subsampling : 4:2:0Bit depth : 8 bitsScan type : InterlacedScan order : Top Field FirstCompression mode : LossyBits/(Pixel*Frame) : 0.466Stream size : 353 MiB (94%)
AudioID : 192 (0xC0)Format : MPEG AudioFormat version : Version 1Format profile : Layer 2Duration : 10mn 12sBit rate mode : ConstantBit rate : 192 KbpsChannel(s) : 2 channelsSampling rate : 48.0 KHzCompression mode : LossyStream size : 14.0 MiB (4%)
Скриншоты
Скачать

Скачать торрент!

Как скачивать? · Что такое торрент? · Рейтинг и ограничения

Сайт не распространяет и не хранит электронные версии произведений, а лишь предоставляет доступ к создаваемому пользователями каталогу ссылок на торрент-файлы, которые содержат только списки хеш-сумм

[Профиль] [ЛС]
Показать сообщения:    
Ответить на тему

Текущее время: Сегодня 20:08

Часовой пояс: GMT + 4



Вы не можете начинать темы
Вы не можете отвечать на сообщения
Вы не можете редактировать свои сообщения
Вы не можете удалять свои сообщения
Вы не можете голосовать в опросах
Вы не можете прикреплять файлы к сообщениям
Вы не можете скачивать файлы