Детские игры / Child\'s Play (Том Холланд / Tom Holland) [1988, США, ужасы, триллер, детектив, BDRip 1080p] 2x DVO (Tycoon, Союз-Видео) + MVO (СТС) + 2x AVO (Живов, Горчаков) + VO (Матвеев) + Ukr + Original Eng + Sub Rus, Eng

Ответить на тему
 
Автор Сообщение

user ®

Стаж: 7 лет 7 месяцев

Сообщений: 20008

Пост Пост: #1 от 21-Мар-2015 16:27

[Цитировать]

Детские игры / Child's Play- Год выпуска: 1988
Страна: США
Жанр: ужасы, триллер, детектив
Продолжительность: 01:27:07
Перевод: Профессиональный (двухголосый, закадровый) Tycoon
+ Профессиональный (двухголосый, закадровый) Союз-Видео
+ Профессиональный (многоголосый, закадровый) СТС
+ Авторский одноголосый Ю.Живов
+ Авторский одноголосый В.Горчаков
+ Одноголосый закадровый А.Матвеев
Оригинальная звуковая дорожка: English
Субтитры: Russian, English-Режиссер: Том Холланд / Tom Holland
В ролях: Кэтрин Хикс, Крис Сарандон, Алекс Винсент, Брэд Дуриф, Дайна Мэнофф, Томми Свердлоу, Джек Колвин, Нил Джунтоли, Хуан Рамирес, Алан Уайлдер
О фильме: Никто не поверил шестилетнему Энди Барклаю, когда он сказал, что его новая кукла по имени Чаки — живая. А когда няня мальчика погибла, выпав из окна, он сказал своей матери и следователю чистую правду: «Это сделал Чаки».
Когда душа убийцы вселяется в невинно выглядящую куклу, никто, кроме маленького Энди, не осознает, что Чаки виновен в захлестнувшей город волне страшных убийств. Но настоящий ужас наступает тогда, когда дух злодея вознамеривается переселиться из куклы в живого человека.-SbR!
Релиз:
Формат: MKV
Видео: 1920x1040 at 23.976 fps, x264@L4.1, crf, ~17215 kbps avg
Аудио #01: Russian: 48 kHz, AC3, 2/0 (L,R) ch, ~192 kbps avg |Двухголосый закадровый, Tycoon|
Аудио #02: Russian: 48 kHz, AC3, 2/0 (L,R) ch, ~192 kbps avg |Двухголосый закадровый, СОЮЗ Видео|
Аудио #03: Russian: 48 kHz, AC3, 2/0 (L,R) ch, ~192 kbps avg |Многоголосый закадровый, СТС|
Аудио #04: Russian: 48 kHz, DTS, 3/2 (L,C,R,l,r) + LFE ch, ~1509 kbps avg |Одноголосый закадровый, А. Матвеев|
Аудио #05: Russian: 48 kHz, DTS, 3/2 (L,C,R,l,r) + LFE ch, ~1509 kbps avg |Одноголосый закадровый, Ю. Живов|
Аудио #06: Russian: 48 kHz, AC3, 2/0 (L,R) ch, ~192 kbps avg |Одноголосый закадровый, В. Горчаков|
Аудио #07: Ukrainian: 48 kHz, AC3, 2/0 (L,R) ch, ~192 kbps avg |Двухголосый закадровый, ТЕТ|
Аудио #08: English: 48 kHz, DTS, 3/2 (L,C,R,l,r) + LFE ch, ~1509 kbps avg
Семпл-Source vs Encode
-
mInfo
Формат : Matroska
Версия формата : Version 4 / Version 2
Размер файла : 13,8 Гбайт
Продолжительность : 1 ч. 27 м.
Общий поток : 22,7 Мбит/сек
Название фильма : Child's Play (1988) - Release for HDCLUB by SbR
Дата кодирования : UTC 2015-02-08 11:23:24
Программа кодирования : mkvmerge v7.5.0 ('Glass Culture') 64bit built on Jan 4 2015 16:48:44
Библиотека кодирования : libebml v1.3.1 + libmatroska v1.4.2
Attachements : cover.jpg / xlog.txt
Видео
Идентификатор : 1
Формат : AVC
Формат/Информация : Advanced Video Codec
Профиль формата : High@L4.1
Параметр CABAC формата : Да
Параметр ReFrames формата : 4 кадра
Идентификатор кодека : V_MPEG4/ISO/AVC
Продолжительность : 1 ч. 27 м.
Битрейт : 16,8 Мбит/сек
Ширина : 1920 пикселей
Высота : 1040 пикселей
Соотношение сторон : 1,85:1
Режим частоты кадров : Постоянный
Частота кадров : 23,976 кадра/сек
Цветовое пространство : YUV
Субдискретизация насыщенности : 4:2:0
Битовая глубина : 8 бит
Тип развёртки : Прогрессивная
Бит/(Пиксели*Кадры) : 0.350
Размер потока : 10,2 Гбайт (74%)
Заголовок : Release for HDCLUB
Библиотека кодирования : x264 core 144 r2525kMod 40bb568
Настройки программы : cabac=1 / ref=4 / deblock=1:-3:-3 / analyse=0x3:0x133 / me=umh / subme=11 / psy=1 / fade_compensate=0.00 / psy_rd=1.00:0.00 / mixed_ref=1 / me_range=32 / chroma_me=1 / trellis=2 / 8x8dct=1 / cqm=0 / deadzone=21,11 / fast_pskip=1 / chroma_qp_offset=-2 / threads=12 / lookahead_threads=2 / sliced_threads=0 / nr=0 / decimate=1 / interlaced=0 / bluray_compat=0 / constrained_intra=0 / fgo=0 / bframes=8 / b_pyramid=2 / b_adapt=2 / b_bias=0 / direct=1 / weightb=1 / open_gop=0 / weightp=2 / keyint=250 / keyint_min=23 / scenecut=40 / intra_refresh=0 / rc_lookahead=60 / rc=crf / mbtree=0 / crf=18.0000 / qcomp=0.60 / qpmin=0 / qpmax=69 / qpstep=4 / vbv_maxrate=62500 / vbv_bufsize=78125 / crf_max=0.0 / nal_hrd=none / filler=0 / ip_ratio=1.40 / pb_ratio=1.30 / aq=1:0.80
Язык : English
Default : Да
Forced : Нет
Основные цвета : BT.709
Характеристики трансфера : BT.709
Коэффициенты матрицы : BT.709
colour_range : Limited
Аудио #1
Идентификатор : 2
Формат : AC-3
Формат/Информация : Audio Coding 3
Профиль формата : Dolby Digital
Расширение режима : CM (complete main)
Параметр Endianness формата : Big
Идентификатор кодека : A_AC3
Продолжительность : 1 ч. 27 м.
Вид битрейта : Постоянный
Битрейт : 192 Кбит/сек
Каналы : 2 канала
Расположение каналов : Front: L R
Частота : 48,0 КГц
Битовая глубина : 16 бит
Метод сжатия : С потерями
Размер потока : 120 Мбайт (1%)
Заголовок : DVO, Tycoon
Язык : Russian
Default : Да
Forced : Нет
Аудио #2
Идентификатор : 3
Формат : AC-3
Формат/Информация : Audio Coding 3
Расширение режима : CM (complete main)
Параметр Endianness формата : Big
Идентификатор кодека : A_AC3
Продолжительность : 1 ч. 27 м.
Вид битрейта : Постоянный
Битрейт : 192 Кбит/сек
Каналы : 2 канала
Расположение каналов : Front: L R
Частота : 48,0 КГц
Битовая глубина : 16 бит
Метод сжатия : С потерями
Размер потока : 120 Мбайт (1%)
Заголовок : DVO, СОЮЗ Видео
Язык : Russian
Default : Нет
Forced : Нет
Аудио #3
Идентификатор : 4
Формат : AC-3
Формат/Информация : Audio Coding 3
Расширение режима : CM (complete main)
Параметр Endianness формата : Big
Идентификатор кодека : A_AC3
Продолжительность : 1 ч. 27 м.
Вид битрейта : Постоянный
Битрейт : 192 Кбит/сек
Каналы : 2 канала
Расположение каналов : Front: L R
Частота : 48,0 КГц
Битовая глубина : 16 бит
Метод сжатия : С потерями
Размер потока : 120 Мбайт (1%)
Заголовок : MVO, СТС
Язык : Russian
Default : Нет
Forced : Нет
Аудио #4
Идентификатор : 5
Формат : DTS
Формат/Информация : Digital Theater Systems
Режим : 16
Параметр Endianness формата : Big
Идентификатор кодека : A_DTS
Продолжительность : 1 ч. 27 м.
Вид битрейта : Постоянный
Битрейт : 1509 Кбит/сек
Каналы : 6 каналов
Расположение каналов : Front: L C R, Side: L R, LFE
Частота : 48,0 КГц
Битовая глубина : 24 бит
Метод сжатия : С потерями
Размер потока : 940 Мбайт (7%)
Заголовок : Матвеев
Язык : Russian
Default : Нет
Forced : Нет
Аудио #5
Идентификатор : 6
Формат : DTS
Формат/Информация : Digital Theater Systems
Режим : 16
Параметр Endianness формата : Big
Идентификатор кодека : A_DTS
Продолжительность : 1 ч. 27 м.
Вид битрейта : Постоянный
Битрейт : 1509 Кбит/сек
Каналы : 6 каналов
Расположение каналов : Front: L C R, Side: L R, LFE
Частота : 48,0 КГц
Битовая глубина : 24 бит
Метод сжатия : С потерями
Размер потока : 940 Мбайт (7%)
Заголовок : Живов
Язык : Russian
Default : Нет
Forced : Нет
Аудио #6
Идентификатор : 7
Формат : AC-3
Формат/Информация : Audio Coding 3
Профиль формата : Dolby Digital
Расширение режима : CM (complete main)
Параметр Endianness формата : Big
Идентификатор кодека : A_AC3
Продолжительность : 1 ч. 27 м.
Вид битрейта : Постоянный
Битрейт : 192 Кбит/сек
Каналы : 2 канала
Расположение каналов : Front: L R
Частота : 48,0 КГц
Битовая глубина : 16 бит
Метод сжатия : С потерями
Размер потока : 120 Мбайт (1%)
Заголовок : Горчаков
Язык : Russian
Default : Нет
Forced : Нет
Аудио #7
Идентификатор : 8
Формат : AC-3
Формат/Информация : Audio Coding 3
Расширение режима : CM (complete main)
Параметр Endianness формата : Big
Идентификатор кодека : A_AC3
Продолжительность : 1 ч. 27 м.
Вид битрейта : Постоянный
Битрейт : 192 Кбит/сек
Каналы : 2 канала
Расположение каналов : Front: L R
Частота : 48,0 КГц
Битовая глубина : 16 бит
Метод сжатия : С потерями
Размер потока : 120 Мбайт (1%)
Заголовок : DVO, ТЕТ
Язык : Ukrainian
Default : Нет
Forced : Нет
Аудио #8
Идентификатор : 9
Формат : DTS
Формат/Информация : Digital Theater Systems
Режим : 16
Параметр Endianness формата : Big
Идентификатор кодека : A_DTS
Продолжительность : 1 ч. 27 м.
Вид битрейта : Постоянный
Битрейт : 1509 Кбит/сек
Каналы : 6 каналов
Расположение каналов : Front: L C R, Side: L R, LFE
Частота : 48,0 КГц
Битовая глубина : 24 бит
Метод сжатия : С потерями
Размер потока : 940 Мбайт (7%)
Язык : English
Default : Нет
Forced : Нет
Текст #1
Идентификатор : 10
Формат : UTF-8
Идентификатор кодека : S_TEXT/UTF8
Идентификатор кодека/Информация : UTF-8 Plain Text
Язык : Russian
Default : Нет
Forced : Нет
Текст #2
Идентификатор : 11
Формат : UTF-8
Идентификатор кодека : S_TEXT/UTF8
Идентификатор кодека/Информация : UTF-8 Plain Text
Язык : English
Default : Нет
Forced : Нет
Меню
00:00:00.000 : en:Logos/Title/Credits
00:04:42.740 : en:Fiery Transference
00:06:19.587 : en:"Good Guy"/Breakfast
00:08:42.230 : en:Wake Up for Presents
00:11:08.667 : en:Buying a "Hot" Doll
00:12:24.326 : en:Bossy Boss
00:13:22.468 : en:"Friend to the End"
00:14:22.319 : en:News Obsession
00:18:41.078 : en:"Night Willies"
00:22:45.489 : en:Night Flight
00:23:46.341 : en:A Killer's Footprints
00:28:30.208 : en:Murder Weapon
00:29:38.276 : en:"Chucky's Alive!"
00:33:07.068 : en:School Dropouts
00:35:53.568 : en:A Gassed Rat
00:39:06.552 : en:Little Liar
00:41:09.967 : en:Not Battery Powered
00:43:47.916 : en:Talk or Burn/Escape
00:46:49.431 : en:Doll Bite
00:48:14.391 : en:A Bad Part of Town
00:50:58.221 : en:Bad Memories
00:52:10.627 : en:"Sane & Rational"
00:53:29.164 : en:Terrifying Ride
00:56:01.024 : en:"Hi, Mikey!"
00:57:21.521 : en:New Evidence
00:59:20.431 : en:"a Date with Death!"
01:02:17.483 : en:"Must Save the Boy!"
01:03:31.432 : en:"Don't Leave Me!"
01:04:34.287 : en:Electrified Exit
01:07:37.219 : en:Where's Andy?
01:08:31.357 : en:"Batter Up!"
01:11:35.791 : en:Evil Incarnation
01:13:29.905 : en:"the End, Friend!"
01:16:21.326 : en:Back & Really Burned
01:19:51.328 : en:A New Believer
01:23:50.275 : en:End Credit
-
Скачать

Скачать торрент!

Как скачивать? · Что такое торрент? · Рейтинг и ограничения

Сайт не распространяет и не хранит электронные версии произведений, а лишь предоставляет доступ к создаваемому пользователями каталогу ссылок на торрент-файлы, которые содержат только списки хеш-сумм

[Профиль] [ЛС]
Показать сообщения:    
Ответить на тему

Текущее время: Сегодня 05:54

Часовой пояс: GMT + 4



Вы не можете начинать темы
Вы не можете отвечать на сообщения
Вы не можете редактировать свои сообщения
Вы не можете удалять свои сообщения
Вы не можете голосовать в опросах
Вы не можете прикреплять файлы к сообщениям
Вы не можете скачивать файлы