Клуб бунтарей / The Riot Club (Лоне Шерфиг / Lone Scherfig) [2014, Великобритания, триллер, драма, BDRip 1080p] DVO + Sub Eng + Original Eng

Ответить на тему
 
Автор Сообщение

user ®

Стаж: 7 лет 7 месяцев

Сообщений: 20008

Пост Пост: #1 от 21-Мар-2015 16:27

[Цитировать]

Клуб бунтарей / The Riot Club
Страна: Великобритания
Студия: Blueprint Pictures
Жанр: триллер, драма
Год выпуска: 2014
Продолжительность: 01:47:01
Перевод: Любительский (двухголосый закадровый) Артём Белоконский & Анжелика Чумакова
Cубтитры: английские, SDH
Оригинальная аудиодорожка: английский
Режиссер: Лоне Шерфиг / Lone Scherfig
В ролях: Сэм Клафлин, Натали Дормер, Джессика Браун-Финдли, Дуглас Бут, Макс Айронс, Холлидей Грейнджер, Том Холландер, Сэм Рид, Бен Шнетцер, Олли Александр
Описание: Студент — первокурсник Оксфордского университета вступает в пользующийся дурной славой Клуб бунтарей. Здесь, за один вечер, можно создать или разрушить репутацию на годы вперёд.

Сэмпл: http://multi-up.com/1039329
Тип релиза: BDRip 1080p
Контейнер: MKV
Видео: MPEG4 Video (H264) 1920x800 23.976fps 14.2 Mbps
Аудио: Russian AC-3 / 6 ch / 48.0 KHz / 448 Kbps
Аудио 2: English DTS / 6 ch / 48.0 KHz / 1 509 Kbps
Формат субтитров: softsub (SRT)

MediaInfo
General
Unique ID : 242348405694956841232605951149975007248 (0xB6529AEB20540F80826BA605BFBFF010)
Complete name : C:\Users\Вика\Desktop\The.Riot.Club.2014.1080p.BDRip.mkv
Format : Matroska
Format version : Version 4 / Version 2
File size : 12.3 GiB
Duration : 1h 47mn
Overall bit rate : 16.5 Mbps
Encoded date : UTC 2015-03-20 07:30:34
Writing application : mkvmerge v7.4.0 ('Circles') 64bit built on Dec 12 2014 12:19:56
Writing library : libebml v1.3.0 + libmatroska v1.4.1
_STATISTICS_WRITING_APP : mkvmerge v7.4.0 ('Circles') 64bit built on Dec 12 2014 12:19:56
_STATISTICS_WRITING_DATE_UTC : 2015-03-20 07:30:34
_STATISTICS_TAGS : BPS DURATION NUMBER_OF_FRAMES NUMBER_OF_BYTES
DURATION : 01:47:00.864000000
NUMBER_OF_FRAMES : 200652
NUMBER_OF_BYTES : 359568384
Video
ID : 1
Format : AVC
Format/Info : Advanced Video Codec
Format profile : High@L4.1
Format settings, CABAC : Yes
Format settings, ReFrames : 5 frames
Codec ID : V_MPEG4/ISO/AVC
Duration : 1h 47mn
Bit rate : 14.2 Mbps
Width : 1 920 pixels
Height : 800 pixels
Display aspect ratio : 2.40:1
Frame rate mode : Constant
Frame rate : 23.976 fps
Color space : YUV
Chroma subsampling : 4:2:0
Bit depth : 8 bits
Scan type : Progressive
Bits/(Pixel*Frame) : 0.386
Stream size : 10.6 GiB (86%)
Writing library : x264 core 142 r2491kMod 24e4fed
Encoding settings : cabac=1 / ref=5 / deblock=1:-3:-3 / analyse=0x3:0x133 / me=umh / subme=11 / psy=1 / fade_compensate=0.00 / psy_rd=1.05:0.00 / mixed_ref=1 / me_range=24 / chroma_me=1 / trellis=2 / 8x8dct=1 / cqm=0 / deadzone=21,11 / fast_pskip=0 / chroma_qp_offset=-2 / threads=12 / lookahead_threads=2 / sliced_threads=0 / nr=0 / decimate=0 / interlaced=0 / bluray_compat=0 / constrained_intra=0 / fgo=0 / bframes=8 / b_pyramid=2 / b_adapt=2 / b_bias=0 / direct=3 / weightb=1 / open_gop=0 / weightp=2 / keyint=250 / keyint_min=23 / scenecut=40 / intra_refresh=0 / rc=crf / mbtree=0 / crf=18.0000 / qcomp=0.73 / qpmin=0 / qpmax=69 / qpstep=4 / ip_ratio=1.30 / pb_ratio=1.20 / aq=1:0.75
Language : English
Default : Yes
Forced : No
_STATISTICS_WRITING_APP : mkvmerge v7.4.0 ('Circles') 64bit built on Dec 12 2014 12:19:56
_STATISTICS_WRITING_DATE_UTC : 2015-03-20 07:30:34
_STATISTICS_TAGS : BPS DURATION NUMBER_OF_FRAMES NUMBER_OF_BYTES
DURATION : 01:47:00.915000000
NUMBER_OF_FRAMES : 153948
NUMBER_OF_BYTES : 11659380861
Audio #1
ID : 2
Format : AC-3
Format/Info : Audio Coding 3
Mode extension : CM (complete main)
Format settings, Endianness : Big
Codec ID : A_AC3
Duration : 1h 47mn
Bit rate mode : Constant
Bit rate : 448 Kbps
Channel(s) : 6 channels
Channel positions : Front: L C R, Side: L R, LFE
Sampling rate : 48.0 KHz
Bit depth : 16 bits
Compression mode : Lossy
Stream size : 343 MiB (3%)
Title : Russian
Language : Russian
Default : Yes
Forced : No
Audio #2
ID : 3
Format : DTS
Format/Info : Digital Theater Systems
Mode : 16
Format settings, Endianness : Big
Codec ID : A_DTS
Duration : 1h 47mn
Bit rate mode : Constant
Bit rate : 1 509 Kbps
Channel(s) : 6 channels
Channel positions : Front: L C R, Side: L R, LFE
Sampling rate : 48.0 KHz
Bit depth : 24 bits
Compression mode : Lossy
Stream size : 1.13 GiB (9%)
Language : English
Default : No
Forced : No
Text #1
ID : 4
Format : UTF-8
Codec ID : S_TEXT/UTF8
Codec ID/Info : UTF-8 Plain Text
Language : English
Default : No
Forced : No
Text #2
ID : 5
Format : UTF-8
Codec ID : S_TEXT/UTF8
Codec ID/Info : UTF-8 Plain Text
Language : English
Default : No
Forced : No
Menu
00:00:00.000 : en:00:00:00.000
00:09:28.276 : en:00:09:28.276
00:18:51.797 : en:00:18:51.797
00:29:30.102 : en:00:29:30.102
00:38:47.325 : en:00:38:47.325
00:47:48.365 : en:00:47:48.365
00:59:24.144 : en:00:59:24.144
01:11:10.600 : en:01:11:10.600
01:17:31.230 : en:01:17:31.230
01:24:07.668 : en:01:24:07.668
01:31:44.791 : en:01:31:44.791
01:39:29.088 : en:01:39:29.088
Скриншоты
Скачать

Скачать торрент!

Как скачивать? · Что такое торрент? · Рейтинг и ограничения

Сайт не распространяет и не хранит электронные версии произведений, а лишь предоставляет доступ к создаваемому пользователями каталогу ссылок на торрент-файлы, которые содержат только списки хеш-сумм

[Профиль] [ЛС]
Показать сообщения:    
Ответить на тему

Текущее время: Сегодня 06:28

Часовой пояс: GMT + 4



Вы не можете начинать темы
Вы не можете отвечать на сообщения
Вы не можете редактировать свои сообщения
Вы не можете удалять свои сообщения
Вы не можете голосовать в опросах
Вы не можете прикреплять файлы к сообщениям
Вы не можете скачивать файлы