Это был сын / E stato il figlio (Даниэле Чипри / Daniele Cipri) [2012, Италия, драма, комедия, BDRip 720p] VO (Andi) + Original Ita + Sub Rus, Eng, Ita

Ответить на тему
 
Автор Сообщение

user ®

Стаж: 7 лет 7 месяцев

Сообщений: 20008

Пост Пост: #1 от 21-Мар-2015 16:27

[Цитировать]

Это был сын / E stato il figlio
Страна: Италия
Студия: Aleteia Communication, Apulia Film Commission, Babe Film
Жанр: драма, комедия
Год выпуска: 2012
Продолжительность: 01:33:09
Перевод: одноголосый закадровый /Andi/
Cубтитры: русские /sonnyb/, английские, итальянские
Оригинальная аудиодорожка: итальянский
Режиссер: Даниэле Чипри / Daniele Cipri
В ролях: Тони Сервилло /Toni Servillo/, Джизельда Володи /Giselda Volodi/, Джузеппе Витале /Giuseppe Vitale/, Альфредо Кастро /Alfredo Castro/, Аврора Кваттрокки /Aurora Quattrocchi/, Мауро Спилатери /Mauro Spitaleri/, Алессия Дзаммитти /Alessia Zammitti/, Фабрицио Фалько /Fabrizio Falco/, Бенедетто Ранели /Benedetto Raneli/, Пьер Джорджо Беллоккьо /Pier Giorgio Bellocchio/
Описание:История одной семьи, живущей в бедном панельном пригороде Палермо. Ее рассказывает немолодой мужчина, целыми днями сидящий в почтовом отделении, а его слушателями становятся все, кто оказывается рядом. В семье Чирауло, о которой он повествует, есть авторитарный и туповатый отец Никола, его жена Лоредана, сын Танкреди и дочь Серенелла. После трагической гибели Серенеллы от шальной мафиозной пули семья пытается получить компенсацию, которая им положена, как жертвам мафии. Но выдача компенсации затягивается из-за того, что родственники Лореданы тоже принадлежат к одному из бандитских кланов...Доп. информация:
КиноПоиск
IMDb
Сэмпл: http://multi-up.com/1039242
Тип релиза: BDRip 720p
Контейнер: MKV
Видео: MPEG-4 AVC Video / 8821 kbps / 1280x544 / 24 fps
Аудио 1: Russian / AC3 / 2.0 / 48 kHz / 192 kbps
Аудио 2: Italian / AC3 / 5.1 / 48 kHz / 640 kbps
Формат субтитров: softsub (SRT), prerendered (Blu-ray/PGS/SUP)
MediaInfo
General
Unique ID : 208670674743370692985971586831461647132 (0x9CFC8295F02AF88896A4BD50B7FC031C)
Complete name : F:\E stato il figlio 2012 720p BluRay DD5.1 x264-EA-RUS.mkv
Format : Matroska
Format version : Version 4 / Version 2
File size : 6.30 GiB
Duration : 1h 33mn
Overall bit rate : 9 678 Kbps
Movie name : Daniele Cipri - E stato il figlio (1987)
Encoded date : UTC 2015-03-12 20:10:07
Writing application : mkvmerge v7.5.0 ('Glass Culture') 64bit built on Jan 4 2015 16:48:44
Writing library : libebml v1.3.1 + libmatroska v1.4.2
_STATISTICS_WRITING_APP : mkvmerge v7.5.0 ('Glass Culture') 64bit built on Jan 4 2015 16:48:44
_STATISTICS_WRITING_DATE_UTC : 2015-03-12 20:10:07
_STATISTICS_TAGS : BPS DURATION NUMBER_OF_FRAMES NUMBER_OF_BYTES
DURATION : 01:27:02.635000000
NUMBER_OF_FRAMES : 850
NUMBER_OF_BYTES : 43827
Video
ID : 1
Format : AVC
Format/Info : Advanced Video Codec
Format profile : High@L4.1
Format settings, CABAC : Yes
Format settings, ReFrames : 12 frames
Codec ID : V_MPEG4/ISO/AVC
Duration : 1h 33mn
Bit rate : 8 653 Kbps
Width : 1 280 pixels
Height : 544 pixels
Display aspect ratio : 2.35:1
Frame rate mode : Constant
Frame rate : 24.000 fps
Color space : YUV
Chroma subsampling : 4:2:0
Bit depth : 8 bits
Scan type : Progressive
Bits/(Pixel*Frame) : 0.518
Stream size : 5.63 GiB (89%)
Title : -EA
Writing library : x264 core 144 r0+2574 9abcd72 t_mod_Custom [8-bit@all X86_64]
Encoding settings : cabac=1 / ref=12 / deblock=1:-3:-3 / analyse=0x3:0x113 / me=umh / subme=10 / psy=1 / fade_compensate=0.00 / psy_rd=1.10:0.00 / mixed_ref=1 / me_range=32 / chroma_me=1 / trellis=2 / 8x8dct=1 / cqm=0 / deadzone=21,11 / fast_pskip=0 / chroma_qp_offset=-2 / threads=12 / lookahead_threads=3 / sliced_threads=0 / nr=0 / decimate=0 / interlaced=0 / bluray_compat=0 / constrained_intra=0 / fgo=0 / bframes=13 / b_pyramid=2 / b_adapt=2 / b_bias=0 / direct=3 / weightb=1 / open_gop=0 / weightp=2 / keyint=240 / keyint_min=24 / scenecut=40 / intra_refresh=0 / rc_lookahead=50 / rc=crf / mbtree=0 / crf=17.0000 / qcomp=0.75 / qpmin=0:0:0 / qpmax=69:69:69 / qpstep=4 / vbv_maxrate=62500 / vbv_bufsize=78125 / crf_max=0.0 / nal_hrd=none / filler=0 / ip_ratio=1.20 / pb_ratio=1.10 / aq=1:0.65 / aq-sensitivity=10.00 / aq-factor=1.00:1.00:1.00 / aq2=1:0.50 / aq2-sensitivity=15.00 / aq2-factor=1.00:1.00:1.00 / aq3=0
Language : Italian
Default : Yes
Forced : No
_STATISTICS_WRITING_APP : mkvmerge v7.5.0 ('Glass Culture') 64bit built on Jan 4 2015 16:48:44
_STATISTICS_WRITING_DATE_UTC : 2015-03-12 20:10:07
_STATISTICS_TAGS : BPS DURATION NUMBER_OF_FRAMES NUMBER_OF_BYTES
DURATION : 01:33:08.542000000
NUMBER_OF_FRAMES : 134125
NUMBER_OF_BYTES : 6162081971
Audio #1
ID : 2
Format : AC-3
Format/Info : Audio Coding 3
Mode extension : CM (complete main)
Format settings, Endianness : Big
Codec ID : A_AC3
Duration : 1h 33mn
Bit rate mode : Constant
Bit rate : 192 Kbps
Channel(s) : 2 channels
Channel positions : Front: L R
Sampling rate : 48.0 KHz
Bit depth : 16 bits
Compression mode : Lossy
Stream size : 128 MiB (2%)
Title : Andi
Language : Russian
Default : Yes
Forced : No
Audio #2
ID : 3
Format : AC-3
Format/Info : Audio Coding 3
Mode extension : CM (complete main)
Format settings, Endianness : Big
Codec ID : A_AC3
Duration : 1h 33mn
Bit rate mode : Constant
Bit rate : 640 Kbps
Channel(s) : 6 channels
Channel positions : Front: L C R, Side: L R, LFE
Sampling rate : 48.0 KHz
Bit depth : 16 bits
Compression mode : Lossy
Stream size : 426 MiB (7%)
Language : Italian
Default : No
Forced : No
Text #1
ID : 4
Format : UTF-8
Codec ID : S_TEXT/UTF8
Codec ID/Info : UTF-8 Plain Text
Title : SRT sonnyb
Language : Russian
Default : No
Forced : No
Text #2
ID : 5
Format : UTF-8
Codec ID : S_TEXT/UTF8
Codec ID/Info : UTF-8 Plain Text
Title : SRT
Language : English
Default : No
Forced : No
Text #3
ID : 6
Format : PGS
Muxing mode : zlib
Codec ID : S_HDMV/PGS
Codec ID/Info : The same subtitle format used on BDs/HD-DVDs
Title : SUP
Language : English
Default : No
Forced : No
Text #4
ID : 7
Format : PGS
Muxing mode : zlib
Codec ID : S_HDMV/PGS
Codec ID/Info : The same subtitle format used on BDs/HD-DVDs
Title : SUP
Language : Italian
Default : No
Forced : No
Text #5
ID : 8
Format : PGS
Muxing mode : zlib
Codec ID : S_HDMV/PGS
Codec ID/Info : The same subtitle format used on BDs/HD-DVDs
Title : SUP HoH
Language : Italian
Default : No
Forced : No
Menu
00:00:00.000 : en:00:00:00.000
00:04:33.292 : en:00:04:33.292
00:09:54.417 : en:00:09:54.417
00:14:27.708 : en:00:14:27.708
00:23:45.167 : en:00:23:45.167
00:27:54.958 : en:00:27:54.958
00:31:23.250 : en:00:31:23.250
00:35:09.583 : en:00:35:09.583
00:42:36.500 : en:00:42:36.500
00:45:04.250 : en:00:45:04.250
00:50:12.042 : en:00:50:12.042
00:57:03.167 : en:00:57:03.167
01:03:59.083 : en:01:03:59.083
01:10:47.917 : en:01:10:47.917
01:17:15.542 : en:01:17:15.542
01:27:31.625 : en:01:27:31.625
Скриншоты
Скачать

Скачать торрент!

Как скачивать? · Что такое торрент? · Рейтинг и ограничения

Сайт не распространяет и не хранит электронные версии произведений, а лишь предоставляет доступ к создаваемому пользователями каталогу ссылок на торрент-файлы, которые содержат только списки хеш-сумм

[Профиль] [ЛС]
Показать сообщения:    
Ответить на тему

Текущее время: Сегодня 00:11

Часовой пояс: GMT + 4



Вы не можете начинать темы
Вы не можете отвечать на сообщения
Вы не можете редактировать свои сообщения
Вы не можете удалять свои сообщения
Вы не можете голосовать в опросах
Вы не можете прикреплять файлы к сообщениям
Вы не можете скачивать файлы